Ссылка на приватное зеркало всего за 1$. Внимание количество ограничено!!!

iTunes

1+1

iTunes

мы

WEB-DL

1

iTunes

Чернобыль

iTunes

Ральф против интернета

Лицензия

ПШазам

Лицензия

Оно 2

Лицензия

30
pack

Вам бонус

ВАЖНО

!!Акция!!

Alien_RageХит недели

RePack

Resident Evil 21

ИГРА 18+

pack

RePack

jed

!!Акция!!

Alien_Rage

RePack

fifa19

RePack

Assassins Creed: Odyssey

RePack

NEED FOR SPEED™ PAYBACK

3 сезон

9 сезон

Бесстыжие 9 сезон

Все сериалы

все сериалы на PB.wtf

RePack

FAR CRY 5
Ребята, катастрофически не хватает 1900р. для оплаты серверов за Октябрь (всвязи с блокировками трафик упал в 3 раза), 1-2р., выручайте.
  

Помешанный на времени / Time Freak (Эндрю Боулер) [2018 г., фантастика, драма, мелодрама, комедия, BDRip] DUB [iTunes] pb.wtf

Помешанный на времени через торрент pb.wtf

Раздают: 1 [ 0 KB/s ]
Размер: 2.18 GB | Добавлен: 11 мес. назад | Торрент скачан:247 раз
Скачать  

07-01-2019 12:07 Помешанный на времени Скачать торрент  

Помешанный на времени / Time Freak
Год выпуска: 2018

Страна: США

Жанр: Фантастика, драма, мелодрама, комедия

Продолжительность: 01:44:51

Перевод: Дубляж - iTunes

Субтитры: Русские, английские (отдельным файлом)

Режиссер: Эндрю Боулер

rating

В ролях: Софи Тёрнер, Марк Блокович, Мэри Элизабет Бойлэн, Эйса Баттерфилд, Корал Чамберс, Ками Кристиансен, Кристофер Эскаланте, Джерри Гарсиа, Скайлер Гизондо, Каден Дж. Грегуар, Кэмерон Харфорд

Описание: Бросила девушка? Неужели уже ничего нельзя изменить? Можно! Студент-физик изобретает машину времени и отправляется в недалекое прошлое, чтобы исправить ошибки. В результате фатального сбоя главным действующим лицом этой любовной истории становится его лучший друг. С кем же останется девушка?
Качество: BDRip
Формат: AVI
Видео кодек: XviD
Аудио кодек: AC3
Видео: XviD, 2122 Кбит/с, 720x384
Аудио#1: Русский, AC3, 6 ch, 384 Кбит/с
Аудио#2: Английский, AC3, 6 ch, 448 Кбит/с
Видео
Идентификатор : 0
Формат : MPEG-4 Visual
Профиль формата : Advanced Simple@L5
Настройки формата : BVOP1 / Custom Matrix
Параметр BVOP формата : 1
Параметр QPel формата : Нет
Параметр GMC формата : Без точки перехода
Параметр матрицы формата : Выборочная
Идентификатор кодека : XVID
Идентификатор кодека/Подсказка : XviD
Продолжительность : 1 ч. 44 м.
Битрейт : 2122 Кбит/сек
Ширина : 720 пикселей
Высота : 384 пикселя
Соотношение сторон : 1,85:1
Частота кадров : 23,976 (24000/1001) кадра/сек
Цветовое пространство : YUV
Субдискретизация насыщенности : 4:2:0
Битовая глубина : 8 бит
Тип развёртки : Прогрессивная
Метод сжатия : С потерями
Бит/(Пиксели*Кадры) : 0.320
Размер потока : 1,55 Гбайт (71%)
Библиотека кодирования : XviD 73

Аудио #1
Идентификатор : 1
Формат : AC-3
Формат/Информация : Audio Coding 3
Коммерческое название : Dolby Digital
Идентификатор кодека : 2000
Продолжительность : 1 ч. 44 м.
Вид битрейта : Постоянный
Битрейт : 384 Кбит/сек
Каналы : 6 каналов
Channel layout : L R C LFE Ls Rs
Частота : 48,0 КГц
Частота кадров : 31,250 кадров/сек (1536 SPF)
Битовая глубина : 16 бит
Метод сжатия : С потерями
Размер потока : 288 Мбайт (13%)
Выравнивание : Разделение по промежуткам
Продолжительность промежутка : 42 мс. (1,00 видеокадр)
Время предзагрузки промежутка : 500 мс.
Заголовок : Russian
ServiceKind/String : Complete Main

Аудио #2
Идентификатор : 2
Формат : AC-3
Формат/Информация : Audio Coding 3
Коммерческое название : Dolby Digital
Идентификатор кодека : 2000
Продолжительность : 1 ч. 44 м.
Вид битрейта : Постоянный
Битрейт : 448 Кбит/сек
Каналы : 6 каналов
Channel layout : L R C LFE Ls Rs
Частота : 48,0 КГц
Частота кадров : 31,250 кадров/сек (1536 SPF)
Битовая глубина : 16 бит
Метод сжатия : С потерями
Размер потока : 336 Мбайт (15%)
Выравнивание : Разделение по промежуткам
Продолжительность промежутка : 42 мс. (1,00 видеокадр)
Время предзагрузки промежутка : 500 мс.
Заголовок : English
ServiceKind/String : Complete Main

скриншот   скриншот   скриншот   скриншот   скриншот  

pb.wtf



Скачать Помешанный на времени через торрент http://pic1.kartinco.top/images/12/3y4xf.jpg Скачать фильм Помешанный на времени через торрент бесплантно в хорошем качестве Описание: Бросила девушка? Неужели уже ничего нельзя изменить? Можно! Студент-физик изобретает машину времени и отправляется в недалекое ... 7.8 10 6
Торрент: Зарегистрирован [2019-01-07 12:07] · скачан: 247 раз
Статус: √ проверено
Размер: 2.18 GB
Как cкачать? Как скачать Помешанный на времени через торрент | qTorrent

% Раздел Тема Автор DL S | L
Фильмы 2018 [DVDrip, WEB-DLRip, HDrip] (DUB, MVO) [ 712 MB ] Помешанный на времени / Time Freak [2018 HDRip ""] coc900 Скачать
1 | 0
Фильмы 2018 [DVDrip, WEB-DLRip, HDrip] (DUB, MVO) [ 1.42 GB ] Помешанный на времени / Time Freak [2018 BDRip] - Twi7ter Скачать
2 | 0
Фильмы 2018 [DVDrip, WEB-DLRip, HDrip] (DUB, MVO) [ 1.41 GB ] Помешанный на времени / Time Freak [2018 BDRip] bober100 Скачать
2 | 0
Фильмы (WEB-DL 720p, 1080p) [ 4.57 GB ] Помешанный на времени / Time Freak [2018 WEB-DL 1080p] bober100 Скачать
1 | 0

28-11-2019 20:33  

Отключить всю рекламу на сайте

08-01-2019 17:48 Помешанный на времени Скачать торрент  

Описание не совсем сходится! Девушку они не делили!pb.wtf



    Дорогой пользователь! Огромная просьба, поблагодарите релизера, оцените раздачу и оставьте свои комментарий, если Вы скачали Помешанный на времени через торрент бесплатно! Внесите свою лепту в развитие PiratBit!
    Комментировать посты могут только пользователи прошедшие не сложную регистрацию
    Показать сообщения:    

    Помешанный на времени через торрент
    Скачать бесплатно Помешанный на времени
    Помешанный на времени скачать торрент
    Помешанный на времени смотреть онлайн
    Cкачать фильм Помешанный на времени бесплатно
    Помешанный на времени скачать торрент в хорошем качестве
    Помешанный на времени смотреть онлайн бесплатно в хорошем качестве


    Вы не можете начинать темы
    Вы не можете отвечать на сообщения
    Вы не можете редактировать свои сообщения
    Вы не можете удалять свои сообщения
    Вы не можете голосовать в опросах
    Вы не можете прикреплять файлы к сообщениям
    Вы можете скачивать файлы