Ссылка на приватное зеркало нашего сайта всего за 1$. Внимание количество ограничено!!!

2 сезон

iTunes

1 сезон

1

2 сезон

2 сезон

iTunes

1 сезон

RePack

30

Ultimate

ВАЖНО

ИГРА 18+

pack

RePack

MK11
pack

Забери бонус

RePack

jed

!!Акция!!

Alien_Rage

RePack

fifa19

RePack

Assassins Creed: Odyssey

RePack

NEED FOR SPEED™ PAYBACK

4 сезон

9 сезон

Бесстыжие 9 сезон

Все сериалы

все сериалы на PB.wtf

RePack

FAR CRY 5
  

Злостные друзья / Т(о)варищи на века / Best F(r)iends: Volume 1 (Джастин МакГрегор) [2017, триллер, драма, комедия, WEB-DL 1080p] [MVO] (Train studio) pb.wtf

Злостные друзья через торрент pb.wtf

Размер: 4.27 GB | Добавлен: 1 год 10 мес. назад | Торрент скачан:55 раз
Скачать  

07-01-2019 13:39 Злостные друзья Скачать торрент  

Злостные друзья / Т(о)варищи на века / Best F(r)iends: Volume 1 Год выпуска: 2017
Страна: США
Жанр: триллер, драма, комедия
Продолжительность: 01:43:27
Перевод: Профессиональный (многоголосый закадровый) Train studio
Роли озвучивали: Михаил Глушковский, Дмитрий Зубарев, Алексей Никитин и Маргарита Корш
Субтитры: нет

Режиссер: Джастин МакГрегор / Justin MacGregor
В ролях: Грег Сестеро, Томми Вайсо, Кристен Стефансен Пино, Винс Джоливетт, Рик Эдвардс,Том Бисселл, Майкл Дэвис и др.
Описание:
Бродяга Джон Кортина становится помощником и лучшим другом чудаковатого гробовщика Харви Льюиса. Новая работа открывает для Джона неожиданно заманчивые перспективы. А всё благодаря золотым зубам покойников. Предавая дружбу, Джон решает украсть драгоценную «коллекцию», собранную Харви.

ratingскриншот  
Сэмпл
Качество видео: WEB-DL 1080p
Формат видео: MKV
Видео: MPEG4 Video (H264), 1908x1000, 16:9, 23.976fps, 5 075 kb/s
Аудио 1: AC3, 48000Hz, 6ch, 448kbps - MVO
Аудио 2: AC3, 48000Hz, 6ch, 384kbps - ENG
Доп. информация о субтитрах: нет
General
Unique ID : 181443657392798360658523261826129877402 (0x8880C6FD1474A2E68982B8AC7506599A)
Complete name : F:\Лучшие друзья (2017).mkv
Format : Matroska
Format version : Version 4 / Version 2
File size : 4.27 GiB
Duration : 1 h 43 min
Overall bit rate : 5 908 kb/s
Movie name : Best.Friends.Volume.1.2017.1080p.WEB-DL.DD5.1.H264-FGT
Encoded date : UTC 2019-01-07 12:48:55
Writing application : mkvmerge v7.6.0 ('Garden of Dreams') 64bit built on Feb 8 2015 13:04:34
Writing library : libebml v1.3.1 + libmatroska v1.4.2
Cover : Yes
Attachments : small_cover.jpg / small_cover_land.jpg / cover.jpg / cover_land.jpg

Video
ID : 1
Format : AVC
Format/Info : Advanced Video Codec
Format profile : High@L4
Format settings, CABAC : Yes
Format settings, ReFrames : 4 frames
Codec ID : V_MPEG4/ISO/AVC
Duration : 1 h 43 min
Bit rate : 5 075 kb/s
Width : 1 908 pixels
Height : 1 000 pixels
Display aspect ratio : 1.908
Frame rate mode : Constant
Frame rate : 23.976 (24000/1001) FPS
Color space : YUV
Chroma subsampling : 4:2:0
Bit depth : 8 bits
Scan type : Progressive
Bits/(Pixel*Frame) : 0.111
Stream size : 3.67 GiB (86%)
Title : Best.Friends.Volume.1.2017.1080p.WEB-DL.DD5.1.H264-FGT
Language : English
Default : Yes
Forced : No
Color range : Limited
Color primaries : BT.709
Transfer characteristics : BT.709
Matrix coefficients : BT.709

Audio #1
ID : 2
Format : AC-3
Format/Info : Audio Coding 3
Mode extension : CM (complete main)
Format settings, Endianness : Big
Codec ID : A_AC3
Duration : 1 h 43 min
Bit rate mode : Constant
Bit rate : 448 kb/s
Channel(s) : 6 channels
Channel positions : Front: L C R, Side: L R, LFE
Sampling rate : 48.0 kHz
Frame rate : 31.250 FPS (1536 spf)
Compression mode : Lossy
Delay relative to video : -42 ms
Stream size : 332 MiB (8%)
Title : (MVO) Train Studio
Language : Russian
Default : Yes
Forced : No

Audio #2
ID : 3
Format : AC-3
Format/Info : Audio Coding 3
Mode extension : CM (complete main)
Format settings, Endianness : Big
Codec ID : A_AC3
Duration : 1 h 43 min
Bit rate mode : Constant
Bit rate : 384 kb/s
Channel(s) : 6 channels
Channel positions : Front: L C R, Side: L R, LFE
Sampling rate : 48.0 kHz
Frame rate : 31.250 FPS (1536 spf)
Compression mode : Lossy
Delay relative to video : -42 ms
Stream size : 284 MiB (6%)
Title : Original
Language : English
Default : No
Forced : No

Menu
00:00:00.000 : en:1
00:00:55.000 : en:2
00:12:05.000 : en:3
00:22:44.000 : en:4
00:30:34.000 : en:5
00:40:22.000 : en:6
00:52:31.000 : en:7
01:01:52.000 : en:8
01:10:38.000 : en:9
01:23:18.000 : en:10
01:32:43.000 : en:11
01:41:03.000 : en:12
скриншот  скриншот  скриншот  
pb.wtf



Скачать Злостные друзья через торрент https://i108.fastpic.ru/big/2019/0107/03/5fa2311b2a195dc9fbf47254f9b09503.png Скачать фильм Злостные друзья через торрент бесплантно в хорошем качестве Описание:Бродяга Джон Кортина становится помощником и лучшим другом чудаковатого гробовщика Харви Льюиса. Новая работа открывает для Джона ... 7 10 3
Торрент: Зарегистрирован [2019-01-07 13:39] · скачан: 55 раз
Статус: √ проверено
Размер: 4.27 GB
Как cкачать? Как скачать Злостные друзья через торрент | qTorrent

28-11-2019 20:33  

Отключить всю рекламу на сайте

    Дорогой пользователь! Огромная просьба, поблагодарите релизера, оцените раздачу и оставьте свои комментарий, если Вы скачали Злостные друзья через торрент бесплатно! Внесите свою лепту в развитие PiratBit!
    Комментировать посты могут только пользователи прошедшие не сложную регистрацию
    Показать сообщения:    

    Злостные друзья через торрент
    Скачать бесплатно Злостные друзья
    Злостные друзья скачать торрент
    Злостные друзья смотреть онлайн
    Cкачать фильм Злостные друзья бесплатно
    Злостные друзья скачать торрент в хорошем качестве
    Злостные друзья смотреть онлайн бесплатно в хорошем качестве


    Вы не можете начинать темы
    Вы не можете отвечать на сообщения
    Вы не можете редактировать свои сообщения
    Вы не можете удалять свои сообщения
    Вы не можете голосовать в опросах
    Вы не можете прикреплять файлы к сообщениям
    Вы можете скачивать файлы