Ссылка на приватное зеркало нашего сайта всего за 1$. Внимание количество ограничено!!!

2 сезон

iTunes

1 сезон

1

2 сезон

2 сезон

iTunes

1 сезон

RePack

30

Новинка

ВАЖНО

ИГРА 18+

pack

RePack

MK11
pack

Забери бонус

RePack

jed

!!Акция!!

Alien_Rage

RePack

fifa19

RePack

Assassins Creed: Odyssey

RePack

NEED FOR SPEED™ PAYBACK

4 сезон

9 сезон

Бесстыжие 9 сезон

Все сериалы

все сериалы на PB.wtf

RePack

FAR CRY 5
  

Лемони Сникет: 33 несчастья / A Series of Unfortunate Events / Сезон: 3 / Серии 1-7 из 7 (Бэрри Зонненфельд) [2019, драма, приключения, семейный, WEBRip] [MVO] (LostFilm) pb.wtf

Лемони Сникет: 33 несчастья через торрент pb.wtf

Размер: 3.96 GB | Добавлен: 1 год 9 мес. назад | Торрент скачан:22 раза
Скачать  

07-01-2019 15:33 Лемони Сникет: 33 несчастья Скачать торрент  


Лемони Сникет: 33 несчастья / A Series of Unfortunate Events


Год выпуска: 2019
Страна: США
Жанр: драма, приключения, семейный
Продолжительность: ~ 00:45:00
Озвучание: Профессиональное (многоголосое закадровое) LostFilm

Режиссеры: Бэрри Зонненфельд, Марк Палански, Бо Уэлш

В ролях: Нил Патрик Харрис, Усман Элли, Мэттью Кардаропле, Джон ДеСантис, Луи Хайнс, Малина Вайсман, Сара Каннинг, Патрик Китинг, Кэтрин О’Хара, Элфри Вудард и другие

Описание: Трое детей семьи Бодлер — Вайолет, Клаус и Солнышко — после страшного пожара остаются сиротами и оказываются на попечении графа Олафа, который всеми силами хочет захватить наследство детей. Дети всячески пытаются объяснить всем вокруг, что граф Олаф не просто плохой опекун, но и ещё пытается убить их, чтобы разбогатеть; разумеется, никто детей не слушает. И только из-за непонимания взрослых сироты попадают в разные злоключения.



Качество: WEBRip *ЧИСТЫЙ РИП *
Формат: AVI
Видео: 720x352, 24 fps, XviD ~1417 kbps avg
Аудио Rus: 48 kHz, MPEG Layer 3, 2 ch, ~128.00 kbps avg
Аудио Eng: 48 kHz, MPEG Layer 3, 2 ch, ~128.00 kbps avg
Субтитры: Русские, английские
скриншот   скриншот   скриншот  
General
Complete name : F:\Лемони Сникет 33 несчастья (сезон 3) A Series of Unfortunate Events (2019) WEBRip - LostFilm\A.Series.of.Unfortunate.Events.S03E01.WEBRip.Rus.Eng.DV.LostFilm.avi
Format : AVI
Format/Info : Audio Video Interleave
File size : 539 MiB
Duration : 43 min 0 s
Overall bit rate : 1 754 kb/s
Movie name : A.Series.of.Unfortunate.Events.S03E01.WEBRip.Rus.Eng.DV.LostFilm / NNM-Club
Writing application : VirtualDubModRus 1.5.10.2 (build 2542/release)
Writing library : VirtualDubMod build 2542/release

Video
ID : 0
Format : MPEG-4 Visual
Format profile : Advanced Simple@L5
Format settings : BVOP2
Format settings, BVOP : 2
Format settings, QPel : No
Format settings, GMC : No warppoints
Format settings, Matrix : Default (H.263)
Codec ID : XVID
Codec ID/Hint : XviD
Duration : 43 min 0 s
Bit rate : 1 417 kb/s
Width : 720 pixels
Height : 352 pixels
Display aspect ratio : 2.045
Frame rate : 24.000 FPS
Color space : YUV
Chroma subsampling : 4:2:0
Bit depth : 8 bits
Scan type : Progressive
Compression mode : Lossy
Bits/(Pixel*Frame) : 0.233
Stream size : 436 MiB (81%)
Title : Rip by DriverV / NNM-Club
Writing library : XviD 67

Audio #1
ID : 1
Format : MPEG Audio
Format version : Version 1
Format profile : Layer 3
Format settings : Joint stereo / MS Stereo
Mode : Joint stereo
Mode extension : MS Stereo
Codec ID : 55
Codec ID/Hint : MP3
Duration : 43 min 0 s
Bit rate mode : Constant
Bit rate : 128 kb/s
Channel(s) : 2 channels
Sampling rate : 48.0 kHz
Compression mode : Lossy
Stream size : 39.4 MiB (7%)
Alignment : Aligned on interleaves

Audio #2
ID : 2
Format : MPEG Audio
Format version : Version 1
Format profile : Layer 3
Format settings : Joint stereo / MS Stereo
Mode : Joint stereo
Mode extension : MS Stereo
Codec ID : 55
Codec ID/Hint : MP3
Duration : 43 min 0 s
Bit rate mode : Constant
Bit rate : 128 kb/s
Channel(s) : 2 channels
Sampling rate : 48.0 kHz
Compression mode : Lossy
Stream size : 39.4 MiB (7%)
Alignment : Aligned on interleaves
Внимание! Раздача ведётся путём добавления новых серий; при каждом добавлении создаётся новый торрент. Чтобы начать докачку новой серии, пользователям необходимо сделать следующее:
(1) остановить скачивание,
(2) удалить старый торрент у себя из клиента (старые серии удалять не надо),
(3) скачать новый торрент и запустить его у себя в клиенте вместо старого, при этом указать клиенту путь в старую папку куда и должно происходить скачивание новых серий.
Ваш клиент при этом должен произвести хеширование (проверку) старой папки (если не производит сам - помогите ему сделать это), и будет докачивать только те серии которых у вас ещё нет. Старые серии при этом не удаляются, а продолжают раздаваться!
Eсли вы уже удалили старые серии, то предотвратить повторную закачку старых серий можно, отжав галочку в соответствующих местах при запуске нового торрента. По возможности, желательно не удалять старые серии как можно дольше чтобы релизёр не столько продолжал раздавать старые серии, а смог сконцентрироваться на новых.
pb.wtf



Скачать Лемони Сникет: 33 несчастья через торрент https://i106.fastpic.ru/big/2019/0107/33/2c39dcf6e91ed2e2bb1010fe2c99df33.jpg Скачать фильм Лемони Сникет: 33 несчастья через торрент бесплантно в хорошем качестве Описание: Трое детей семьи Бодлер — Вайолет, Клаус и Солнышко — после страшного пожара остаются сиротами и оказываются на попечении графа ... 5 10 1
Торрент: Зарегистрирован [2019-03-04 13:15] · скачан: 22 раз
Статус: √ проверено
Размер: 3.96 GB
Как cкачать? Как скачать Лемони Сникет: 33 несчастья через торрент | qTorrent

% Раздел Тема Автор DL S | L
Зарубежные сериалы [ 8.77 GB ] Лемони Сникет: 33 несчастья / Lemony Snicket's A Series of Unfortunate Events / Сезон: 3 / Серия: 1-7 из 7 [2019 WEBRip 720p] [MVO] killermax2013 Скачать
1 | 0
Зарубежные сериалы [ 7.52 GB ] Лемони Сникет: 33 несчастья / A Series of Unfortunate Events / Сезон 3 / Серии 1-7 из 7 [2019 WEBRip 720p] [MVO] killermax2013 Скачать
1 | 0
Зарубежные сериалы [ 4.85 GB ] Лемони Сникет: 33 несчастья / A Series of Unfortunate Events / Сезон: 3 / Серии 1-7 из 7 [2019 WEBRip 720p] [DVO] killermax2013 Скачать
1 | 0
Зарубежные сериалы [ 10.36 GB ] Лемони Сникет: 33 несчастья / A Series of Unfortunate Events / Сезон: 3 / Серии 1-7 из 7 [2019 WEB-DL 1080p] [Sub RUS] + [Multi] killermax2013 Скачать
1 | 0


Последний раз редактировалось: killermax2013 (2019-03-04 13:14), всего редактировалось 2 раз(а)

28-11-2019 20:33  

Отключить всю рекламу на сайте

21-01-2019 11:38 Лемони Сникет: 33 несчастья Скачать торрент  

Серьёзно? Третий сезон? Я прекратил смотреть после первых двух серий второго сезона, потому что чуть рот не порвал от скуки. Что там ещё можно вытянуть из этой истории? Лучше бы Барри снял что-нибудь на подобии Людей в чёрном.pb.wtf



    Дорогой пользователь! Огромная просьба, поблагодарите релизера, оцените раздачу и оставьте свои комментарий, если Вы скачали Лемони Сникет: 33 несчастья через торрент бесплатно! Внесите свою лепту в развитие PiratBit!
    Комментировать посты могут только пользователи прошедшие не сложную регистрацию
    Показать сообщения:    

    Лемони Сникет: 33 несчастья через торрент
    Скачать бесплатно Лемони Сникет: 33 несчастья
    Лемони Сникет: 33 несчастья скачать торрент
    Лемони Сникет: 33 несчастья смотреть онлайн
    Cкачать фильм Лемони Сникет: 33 несчастья бесплатно
    Лемони Сникет: 33 несчастья скачать торрент в хорошем качестве
    Лемони Сникет: 33 несчастья смотреть онлайн бесплатно в хорошем качестве


    Вы не можете начинать темы
    Вы не можете отвечать на сообщения
    Вы не можете редактировать свои сообщения
    Вы не можете удалять свои сообщения
    Вы не можете голосовать в опросах
    Вы не можете прикреплять файлы к сообщениям
    Вы можете скачивать файлы