Ссылка на приватное зеркало нашего сайта всего за 1$. Внимание количество ограничено!!!

2 сезон

iTunes

1 сезон

1

2 сезон

2 сезон

iTunes

1 сезон

RePack

30

Ultimate

ВАЖНО

ИГРА 18+

pack

RePack

MK11
pack

Забери бонус

RePack

jed

!!Акция!!

Alien_Rage

RePack

fifa19

RePack

Assassins Creed: Odyssey

RePack

NEED FOR SPEED™ PAYBACK

4 сезон

9 сезон

Бесстыжие 9 сезон

Все сериалы

все сериалы на PB.wtf

RePack

FAR CRY 5
  

Плетеный человек / The Wicker Man (Нил ЛаБут / Neil LaBute) [2006, ужасы, триллер, детектив, DVB] [Open Matte] [DVO] (Инис) pb.wtf

Плетеный человек через торрент pb.wtf

Размер: 1.55 GB | Добавлен: 1 год 10 мес. назад | Торрент скачан:6 раз
Скачать  

07-01-2019 16:00 Плетеный человек Скачать торрент  

Плетеный человек
The Wicker Man
Год выпуска: 2006
Страна: США, Германия, Канада
Жанр: ужасы, триллер, детектив
Продолжительность: 01:33:59
Перевод: Профессиональный (двухголосый закадровый) - Инис *
Текст читают: Олег Мартьянов, Ирина Маликова.
Субтитры: отсутствуют
Режиссёр: Нил ЛаБут: Neil LaBute

В ролях: Николас Кейдж, Эллен Бёрстин, Кейт Бихан, Фрэнсис Конрой, Молли Паркер, Лили Собески, Дайан Делано, Майкл Уайзмен, Эрика-Шэй Гэйр, Криста Кэмпбелл
О фильме: Бывший полицейский Эдвард Маюлис получает письмо от своей давней подруги, в котором она просит найти ее пропавшую дочь. Расследуя исчезновение маленькой девочки, Эдвард попадает на странный остров с очень странными людьми и обнаруживает, что пропажа девочки связана с существующим на острове тайным обществом. Непонятные символы, пугающие обряды — во всем этом придется разобраться полицейскому, чтобы узнать страшную тайну…

Семпл: https://www.sendspace.com/file/2pbpkq
Качество: DVB [ON TV] (эфир 05.01.2019)
Формат: TS
Видео: AVC, 720x576 @ 1047x576 (16:9), 25 fps, ~2052 kbps, 0.198 bit/pixel
Аудио: [RUS] 48 kHz, MP2, 1 ch, 192 kbps
General
ID : 1 (0x1)
Complete name : H:\Раздачи\The.Wicker.Man.DVB.Open.Matte.MVO.Inis.ts
Format : MPEG-TS
File size : 1.55 GiB
Duration : 1 h 33 min
Overall bit rate mode : Variable
Overall bit rate : 2 363 kb/s

Video
ID : 67 (0x43)
Menu ID : 1 (0x1)
Format : AVC
Format/Info : Advanced Video Codec
Format profile : High@L3
Format settings : CABAC / 3 Ref Frames
Format settings, CABAC : Yes
Format settings, ReFrames : 3 frames
Format settings, GOP : M=4, N=24
Codec ID : 27
Duration : 1 h 33 min
Bit rate : 2 052 kb/s
Width : 720 pixels
Height : 576 pixels
Display aspect ratio : 16:9
Frame rate : 25.000 FPS
Standard : Component
Color space : YUV
Chroma subsampling : 4:2:0
Bit depth : 8 bits
Scan type : Interlaced
Scan type, store method : Separated fields
Scan order : Top Field First
Bits/(Pixel*Frame) : 0.198
Stream size : 1.35 GiB (87%)
Color range : Limited
Color primaries : BT.601 PAL
Transfer characteristics : BT.470 System B/G
Matrix coefficients : BT.470 System B/G

Audio
ID : 68 (0x44)
Menu ID : 1 (0x1)
Format : MPEG Audio
Format version : Version 1
Format profile : Layer 2
Codec ID : 3
Duration : 1 h 33 min
Bit rate mode : Constant
Bit rate : 192 kb/s
Channel(s) : 1 channel
Sampling rate : 48.0 kHz
Frame rate : 41.667 FPS (1152 SPF)
Compression mode : Lossy
Delay relative to video : -40 ms
Stream size : 129 MiB (8%)
Language : English
скриншот  скриншот  скриншот  скриншот  
скриншот  скриншот  
pb.wtf



Скачать Плетеный человек через торрент https://i106.fastpic.ru/big/2019/0107/e7/a9dcc20f7764d21341efb02f8ee3d3e7.jpg Скачать фильм Плетеный человек через торрент бесплантно в хорошем качестве О фильме: Бывший полицейский Эдвард Маюлис получает письмо от своей давней подруги, в котором она просит найти ее пропавшую дочь. Расследуя ... 10 10 1
Торрент: Зарегистрирован [2019-01-07 16:00] · скачан: 6 раз
Статус: √ проверено
Размер: 1.55 GB
Как cкачать? Как скачать Плетеный человек через торрент | qTorrent

% Раздел Тема Автор DL S | L
Фильмы до 2000 г. [ 1.45 GB ] Плетеный человек / The Wicker Man [1973 BDRip] DVO + subs Liloo_Foofyga Скачать
1 | 0
Фильмы [HD 720p, 1080p] (Хороший звук DUB, MVO) [ 8.26 GB ] Плетеный человек / The Wicker Man [2006 BDRip 1080p] diletant Скачать
1 | 0
Фильмы [HD 720p, 1080p] (Хороший звук DUB, MVO) [ 4.81 GB ] Плетеный человек / The Wicker Man [2006 BDRip 720p.] diletant Скачать
1 | 0

28-11-2019 20:33  

Отключить всю рекламу на сайте

    Дорогой пользователь! Огромная просьба, поблагодарите релизера, оцените раздачу и оставьте свои комментарий, если Вы скачали Плетеный человек через торрент бесплатно! Внесите свою лепту в развитие PiratBit!
    Комментировать посты могут только пользователи прошедшие не сложную регистрацию
    Показать сообщения:    

    Плетеный человек через торрент
    Скачать бесплатно Плетеный человек
    Плетеный человек скачать торрент
    Плетеный человек смотреть онлайн
    Cкачать фильм Плетеный человек бесплатно
    Плетеный человек скачать торрент в хорошем качестве
    Плетеный человек смотреть онлайн бесплатно в хорошем качестве


    Вы не можете начинать темы
    Вы не можете отвечать на сообщения
    Вы не можете редактировать свои сообщения
    Вы не можете удалять свои сообщения
    Вы не можете голосовать в опросах
    Вы не можете прикреплять файлы к сообщениям
    Вы можете скачивать файлы