Ссылка на приватное зеркало нашего сайта всего за 1$. Внимание количество ограничено!!!

2 сезон

iTunes

1 сезон

1

2 сезон

2 сезон

iTunes

1 сезон

RePack

30

Ultimate

ВАЖНО

ИГРА 18+

pack

RePack

MK11
pack

Забери бонус

RePack

jed

!!Акция!!

Alien_Rage

RePack

fifa19

RePack

Assassins Creed: Odyssey

RePack

NEED FOR SPEED™ PAYBACK

4 сезон

9 сезон

Бесстыжие 9 сезон

Все сериалы

все сериалы на PB.wtf

RePack

FAR CRY 5
  

Мир через замочную скважину / Peep World (Бэрри В. Блауштейн) [2010, драма, комедия, HDRip 720p] [UNRATED] [MVO] (Gremlin Creative Studio) pb.wtf

Мир через замочную скважину через торрент pb.wtf

Размер: 1.43 GB | Добавлен: 1 год 10 мес. назад | Торрент скачан:93 раза
Скачать  

07-01-2019 16:21 Мир через замочную скважину Скачать торрент  

Мир через замочную скважину / Peep World / UNRATED Год выпуска: 2010
Страна: США
Жанр: драма, комедия
Продолжительность: 01:19:21
Перевод: Любительский (многоголосый закадровый) Gremlin Creative Studio
Субтитры: русские [Gremlin Creative Studio]

Режиссер: Бэрри В. Блауштейн / Barry W. Blaustein

В ролях: Льюис Блэк, Рон Рифкин, Рэйн Уилсон, Тараджи П. Хенсон, Сара Силверман, Стивен Тоболовски, Николас Хорманн, Лесли Энн Уоррен, Джуди Грир, Майкл С. Холл

Описание: Фильм расскажет о нескольких братьях и сестрах, вступающих в конфликт друг с другом после того, как один из них раскрывает довольно интимные семейные секреты в своем романе.

ratingскриншот  

Доп. информация:
**************************************************************
Первый и единственный перевод на данный фильм.
Перевод и озвучка выполнены БЕЗ ЦЕНЗУРЫ.

**************************************************************
Сэмпл: http://sendfile.su/1466368

Тип релиза: HDRip 720p
Контейнер: MKV
Видео: V_MPEG4/ISO/AVC, 1280x544 (2.35:1), 23.976 fps, 1841 kbps
Аудио 1: Русский, A_AC3, 48 kHz, 448 kb/s, 6 ch
Аудио 2: Английский, A_AAC-2, 48 kHz, 288 kb/s, 6 ch
Формат субтитров: softsub (SRT)
General
Unique ID : 201911278062323232403821429653385282454 (0x97E6B299629D3AEBAEC43D27006C8396)
Complete name : Мир через замочную скважину (Peep World, 2010) UNRATED 720p BRRip.mkv
Format : Matroska
Format version : Version 4
File size : 1.43 GiB
Duration : 1 h 19 min
Overall bit rate : 2 580 kb/s
Encoded date : UTC 2019-01-07 01:27:30
Writing application : mkvmerge v8.9.0 ('Father Daughter') 64bit
Writing library : libebml v1.3.3 + libmatroska v1.4.4
Attachments : Peep-World-GCS.jpg

Video
ID : 1
Format : AVC
Format/Info : Advanced Video Codec
Format profile : High@L4.1
Format settings : CABAC / 3 Ref Frames
Format settings, CABAC : Yes
Format settings, ReFrames : 3 frames
Codec ID : V_MPEG4/ISO/AVC
Duration : 1 h 19 min
Bit rate : 1 841 kb/s
Width : 1 280 pixels
Height : 544 pixels
Display aspect ratio : 2.35:1
Frame rate mode : Constant
Frame rate : 23.976 (24000/1001) FPS
Color space : YUV
Chroma subsampling : 4:2:0
Bit depth : 8 bits
Scan type : Progressive
Bits/(Pixel*Frame) : 0.110
Stream size : 1.02 GiB (71%)
Title : original_video_eng
Writing library : x264 core 115 r1995 c1e60b9
Encoding settings : cabac=1 / ref=3 / deblock=1:0:0 / analyse=0x3:0x113 / me=hex / subme=7 / psy=1 / psy_rd=1.00:0.00 / mixed_ref=1 / me_range=16 / chroma_me=1 / trellis=2 / 8x8dct=1 / cqm=0 / deadzone=21,11 / fast_pskip=0 / chroma_qp_offset=-2 / threads=6 / sliced_threads=0 / nr=0 / decimate=1 / interlaced=0 / bluray_compat=0 / constrained_intra=0 / bframes=3 / b_pyramid=0 / b_adapt=2 / b_bias=0 / direct=1 / weightb=1 / open_gop=0 / weightp=2 / keyint=250 / keyint_min=23 / scenecut=40 / intra_refresh=0 / rc_lookahead=50 / rc=2pass / mbtree=1 / bitrate=1841 / ratetol=1.0 / qcomp=0.60 / qpmin=10 / qpmax=51 / qpstep=4 / cplxblur=20.0 / qblur=0.5 / vbv_maxrate=25000 / vbv_bufsize=25000 / nal_hrd=none / ip_ratio=1.40 / aq=1:1.00
Language : English
Default : Yes
Forced : No

Audio #1
ID : 2
Format : AC-3
Format/Info : Audio Coding 3
Commercial name : Dolby Digital
Codec ID : A_AC3
Duration : 1 h 19 min
Bit rate mode : Constant
Bit rate : 448 kb/s
Channel(s) : 6 channels
Channel layout : L R C LFE Ls Rs
Sampling rate : 48.0 kHz
Frame rate : 31.250 FPS (1536 SPF)
Bit depth : 16 bits
Compression mode : Lossy
Stream size : 254 MiB (17%)
Title : Gremlin Creative Studio 5.1 RUS
Language : Russian
Service kind : Complete Main
Default : Yes
Forced : Yes

Audio #2
ID : 3
Format : AAC LC
Format/Info : Advanced Audio Codec Low Complexity
Codec ID : A_AAC-2
Duration : 1 h 19 min
Bit rate : 288 kb/s
Channel(s) : 6 channels
Channel layout : C L R Ls Rs LFE
Sampling rate : 48.0 kHz
Frame rate : 46.875 FPS (1024 SPF)
Compression mode : Lossy
Stream size : 163 MiB (11%)
Title : Original_5.1
Language : English
Default : No
Forced : No

Text #1
ID : 4
Format : UTF-8
Codec ID : S_TEXT/UTF8
Codec ID/Info : UTF-8 Plain Text
Duration : 1 h 16 min
Bit rate : 120 b/s
Count of elements : 1629
Stream size : 67.3 KiB (0%)
Title : Gremlin Creative Studio RU SUB
Language : Russian
Default : No
Forced : No

Text #2
ID : 5
Format : UTF-8
Codec ID : S_TEXT/UTF8
Codec ID/Info : UTF-8 Plain Text
Duration : 1 h 15 min
Bit rate : 76 b/s
Count of elements : 1665
Stream size : 42.4 KiB (0%)
Title : Original SUB
Language : English
Default : No
Forced : No
скриншот  скриншот  скриншот  
pb.wtf



Скачать Мир через замочную скважину через торрент https://i107.fastpic.ru/big/2019/0107/bf/72600cf6590cdbb8555568fac83413bf.jpg Скачать фильм Мир через замочную скважину через торрент бесплантно в хорошем качестве Описание: Фильм расскажет о нескольких братьях и сестрах, вступающих в конфликт друг с другом после того, как один из них раскрывает ... 8.6 10 7
Торрент: Зарегистрирован [2019-01-07 16:21] · скачан: 93 раз
Статус: √ проверено
Размер: 1.43 GB
Как cкачать? Как скачать Мир через замочную скважину через торрент | qTorrent

28-11-2019 20:33  

Отключить всю рекламу на сайте

07-01-2019 16:23 Мир через замочную скважину Скачать торрент  

Цитата:

другого видео-исходника нет в сети, от слова "совсем". Исходник оставлен в том же виде.

pb.wtf



    Дорогой пользователь! Огромная просьба, поблагодарите релизера, оцените раздачу и оставьте свои комментарий, если Вы скачали Мир через замочную скважину через торрент бесплатно! Внесите свою лепту в развитие PiratBit!
    Комментировать посты могут только пользователи прошедшие не сложную регистрацию
    Показать сообщения:    

    Мир через замочную скважину через торрент
    Скачать бесплатно Мир через замочную скважину
    Мир через замочную скважину скачать торрент
    Мир через замочную скважину смотреть онлайн
    Cкачать фильм Мир через замочную скважину бесплатно
    Мир через замочную скважину скачать торрент в хорошем качестве
    Мир через замочную скважину смотреть онлайн бесплатно в хорошем качестве


    Вы не можете начинать темы
    Вы не можете отвечать на сообщения
    Вы не можете редактировать свои сообщения
    Вы не можете удалять свои сообщения
    Вы не можете голосовать в опросах
    Вы не можете прикреплять файлы к сообщениям
    Вы можете скачивать файлы