Ссылка на приватное зеркало нашего сайта всего за 1$. Внимание количество ограничено!!!

2 сезон

iTunes

1 сезон

1

2 сезон

2 сезон

iTunes

1 сезон

RePack

30

Новинка

ВАЖНО

ИГРА 18+

pack

RePack

MK11
pack

Забери бонус

RePack

jed

!!Акция!!

Alien_Rage

RePack

fifa19

RePack

Assassins Creed: Odyssey

RePack

NEED FOR SPEED™ PAYBACK

4 сезон

9 сезон

Бесстыжие 9 сезон

Все сериалы

все сериалы на PB.wtf

RePack

FAR CRY 5
  

Коллекция Вельвет / Velvet Colecciоn / Сезон: 1 / Серии: 1-10 из 10 (Густаво Рон, Хорхе Торрегросса) [2017, драма, комедия, WEBRip-AVC] [VO] (Madlen Duval) pb.wtf

Коллекция Вельвет через торрент pb.wtf

Размер: 7.66 GB | Добавлен: 1 год 10 мес. назад | Торрент скачан:6 раз
Скачать  

07-01-2019 16:54 Коллекция Вельвет Скачать торрент  

Коллекция Вельвет / Velvet Colecciоn Год выпуска: 2017
Страна: Испания
Жанр: драма, комедия
Продолжительность: ~00:50:00
Перевод: Любительский (одноголосый закадровый) Madlen Duval

Режиссёр: Густаво Рон, Хорхе Торрегросса

В ролях: Асьер Эчандия, Йоренс Гонсалес, Эманол Ареас, Андреа Дуро, Моника Крус, Марта Торне, Паула Эчеваррия, Амайя Саламанка, Марта Асас, Айтана Санчес-Хихон, Хавьер Рей, Адриан Ластра.

Описание: После трех лет жизни в Нью Йорке со своим мужем Альберто, Ана Ривера возвращается в Испанию, чтобы расширить проект Вельвет и открыть филиал в Барселоне. Главные герои покидают Мадрид и перемещаются в Барселону,чтобы повторить успех Вельвет.

rating
Сэмпл: http://multi-up.com/1211801

Качество: WEBRip
Формат: MP4
Видео: AVC, 1280x720 (16:9), 1980 kbps, 30.000 fps, 0.072 bpp
Аудио: 44.1 kHz, AAC, 2 ch, 192 kbps
Субтитры: нет

Реклама: нет
General
Complete name : I:\Velvet Colecciоn 720\Velvet Colección 1х03 La emperatriz.mp4
Format : MPEG-4
Format profile : Base Media
Codec ID : isom
File size : 805 MiB
Duration : 51mn 48s
Overall bit rate : 2 172 Kbps
Writing application : Lavf57.83.100

Video
ID : 1
Format : AVC
Format/Info : Advanced Video Codec
Format profile : High@L3.1
Format settings, CABAC : Yes
Format settings, ReFrames : 4 frames
Codec ID : avc1
Codec ID/Info : Advanced Video Coding
Duration : 51mn 48s
Bit rate : 1 980 Kbps
Width : 1 280 pixels
Height : 720 pixels
Display aspect ratio : 16:9
Frame rate mode : Constant
Frame rate : 30.000 fps
Color space : YUV
Chroma subsampling : 4:2:0
Bit depth : 8 bits
Scan type : Progressive
Bits/(Pixel*Frame) : 0.072
Stream size : 731 MiB (91%)
Writing library : x264 core 148
Encoding settings : cabac=1 / ref=2 / deblock=1:0:0 / analyse=0x3:0x113 / me=hex / subme=6 / psy=1 / psy_rd=1.00:0.00 / mixed_ref=1 / me_range=16 / chroma_me=1 / trellis=1 / 8x8dct=1 / cqm=0 / deadzone=21,11 / fast_pskip=1 / chroma_qp_offset=-2 / threads=6 / lookahead_threads=1 / sliced_threads=0 / nr=0 / decimate=1 / interlaced=0 / bluray_compat=0 / constrained_intra=0 / bframes=3 / b_pyramid=2 / b_adapt=1 / b_bias=0 / direct=1 / weightb=1 / open_gop=0 / weightp=1 / keyint=250 / keyint_min=25 / scenecut=40 / intra_refresh=0 / rc_lookahead=30 / rc=cbr / mbtree=1 / bitrate=1980 / ratetol=1.0 / qcomp=0.60 / qpmin=0 / qpmax=69 / qpstep=4 / vbv_maxrate=1980 / vbv_bufsize=3960 / nal_hrd=none / filler=0 / ip_ratio=1.40 / aq=1:1.00

Audio
ID : 2
Format : AAC
Format/Info : Advanced Audio Codec
Format profile : LC
Codec ID : 40
Duration : 51mn 48s
Bit rate mode : Constant
Bit rate : 192 Kbps
Channel count : 2 channels
Channel positions : Front: L R
Sampling rate : 44.1 KHz
Compression mode : Lossy
Delay relative to video : 67ms
Stream size : 71.1 MiB (9%)
скриншот  скриншот  скриншот  
pb.wtf



Скачать Коллекция Вельвет через торрент http://i78.fastpic.ru/big/2018/1014/4c/8305bb8252202730067a25191a06f24c.jpg Скачать фильм Коллекция Вельвет через торрент бесплантно в хорошем качестве Описание: После трех лет жизни в Нью Йорке со своим мужем Альберто, Ана Ривера возвращается в Испанию, чтобы расширить проект Вельвет и ... 5 10 1
Торрент: Зарегистрирован [2019-01-07 16:54] · скачан: 6 раз
Статус: √ проверено
Размер: 7.66 GB
Как cкачать? Как скачать Коллекция Вельвет через торрент | qTorrent

28-11-2019 20:33  

Отключить всю рекламу на сайте

    Дорогой пользователь! Огромная просьба, поблагодарите релизера, оцените раздачу и оставьте свои комментарий, если Вы скачали Коллекция Вельвет через торрент бесплатно! Внесите свою лепту в развитие PiratBit!
    Комментировать посты могут только пользователи прошедшие не сложную регистрацию
    Показать сообщения:    

    Коллекция Вельвет через торрент
    Скачать бесплатно Коллекция Вельвет
    Коллекция Вельвет скачать торрент
    Коллекция Вельвет смотреть онлайн
    Cкачать фильм Коллекция Вельвет бесплатно
    Коллекция Вельвет скачать торрент в хорошем качестве
    Коллекция Вельвет смотреть онлайн бесплатно в хорошем качестве


    Вы не можете начинать темы
    Вы не можете отвечать на сообщения
    Вы не можете редактировать свои сообщения
    Вы не можете удалять свои сообщения
    Вы не можете голосовать в опросах
    Вы не можете прикреплять файлы к сообщениям
    Вы можете скачивать файлы