Ссылка на приватное зеркало нашего сайта всего за 1$. Внимание количество ограничено!!!

2 сезон

iTunes

1 сезон

1

2 сезон

2 сезон

iTunes

1 сезон

RePack

30

Новинка

ВАЖНО

ИГРА 18+

pack

RePack

MK11
pack

Забери бонус

RePack

jed

!!Акция!!

Alien_Rage

RePack

fifa19

RePack

Assassins Creed: Odyssey

RePack

NEED FOR SPEED™ PAYBACK

4 сезон

9 сезон

Бесстыжие 9 сезон

Все сериалы

все сериалы на PB.wtf

RePack

FAR CRY 5
  

Метод Комински / The Kominsky Method / Сезон: 1 / Серии: 1-8 из 8 (Энди Теннант, Бет МакКарти-Миллер, Дональд Питри) [2018, Комедия, WEB-DLRip] [MVO] (АРК-ТВ Studio) pb.wtf

Метод Комински через торрент pb.wtf

Размер: 2.65 GB | Добавлен: 1 год 10 мес. назад | Торрент скачан:23 раза
Скачать  

07-01-2019 20:37 Метод Комински Скачать торрент  

Метод Комински | The Kominsky Method
Год выпуска: 2018
Страна: США
Жанр: Комедия
Продолжительность: ~ 00:28:00
Перевод: Профессиональный (многоголосый закадровый) | АРК-ТВ Studio
Режиссёр: Энди Теннант, Бет МакКарти-Миллер, Дональд Питри
В ролях: Алан Аркин, Сара Бэйкер, Майкл Дуглас, Нэнси Трэвис, Дженна Линг, Кэйси Томас Браун, Эшли ЛаТроп, Мелисса Тэнг, Эмили Осмент, Грэхэм Роджерс
Описание: Сэнди Комински когда-то был популярным актёром, но слава не задержалась в его жизни, и теперь он преподает актёрское мастерство в Голливуде.
скриншот  

Качество: WEB-DLRip
Формат: AVI
Видео: XviD, 720x384, 23,976 кадров/сек, ~1500 Кбит/сек
Аудио Rus: MP3, 48 kHz, 2 ch, 128 Кбит/сек | АРК-ТВ Studio
Аудио Eng: MP3, 48 kHz, 2 ch, 128 Кбит/сек
Субтитры: Русские (Forced, Full), английские

Внимание: В русских субтитрах присутствует НЕНОРМАТИВНАЯ лексика
    01. ГЛАВА 1. АКТЕР ИЗБЕГАЕТ | Chapter 1: An Actor Avoids
    02. ГЛАВА 2. АГЕНТ СКОРБИТ | Chapter 2: An Agent Grieves
    03. ГЛАВА 3. УВЕЛИЧЕНИЕ ПРОСТАТЫ | Chapter 3: A Prostate Enlarges
    04. ГЛАВА 4. КЕГЕЛЬ СКРИПИТ | Chapter 4: A Kegel Squeaks
    05. ГЛАВА 5. АГЕНТ С ГОЛОВОЙ В ЗАДНИЦЕ | Chapter 5: An Agent Crowns
    06. ГЛАВА 6. ДЕТОКС ДЛЯ ДОЧЕРИ | Chapter 6: A Daughter Detoxes
    07. ГЛАВА 7. ОБЯЗАТЕЛЬСТВО ВОЗНИКАЕТ | Chapter 7: A String Is Attached
    08. ГЛАВА 8. ВДОВА ПРИБЛИЖАЕТСЯ | Chapter 8: A Widow Approaches

Общее
Полное имя : E:\The Kominsky Method (Season 1) WEB-DLRip\The.Kominsky.Method.S01E01.Chapter.1.An.Actor.Avoids.WEB-DLRip.[Wentworth_Miller].avi
Формат : AVI
Формат/Информация : Audio Video Interleave
Размер файла : 442 Мбайт
Продолжительность : 33 м. 50 с.
Общий поток : 1828 Кбит/сек
Программа кодирования : VirtualDubMod 1.5.10.3 | www.virtualdub-fr.org || (build 2550/release)
Библиотека кодирования : VirtualDubMod build 2550/release

Видео
Идентификатор : 0
Формат : MPEG-4 Visual
Профиль формата : Advanced Simple@L5
Настройки формата : BVOP2
Параметр BVOP формата : 2
Параметр QPel формата : Нет
Параметр GMC формата : Без точки перехода
Параметр матрицы формата : Default (MPEG)
Идентификатор кодека : XVID
Идентификатор кодека/Подсказка : XviD
Продолжительность : 33 м. 50 с.
Битрейт : 1558 Кбит/сек
Ширина : 720 пикселей
Высота : 384 пикселя
Соотношение сторон : 1,85:1
Частота кадров : 23,976 (24000/1001) кадра/сек
Цветовое пространство : YUV
Субдискретизация насыщенности : 4:2:0
Битовая глубина : 8 бит
Тип развёртки : Прогрессивная
Метод сжатия : С потерями
Бит/(Пиксели*Кадры) : 0.235
Размер потока : 377 Мбайт (85%)
Библиотека кодирования : XviD 61

Аудио #1
Идентификатор : 1
Формат : MPEG Audio
Версия формата : Version 1
Профиль формата : Layer 3
Идентификатор кодека : 55
Идентификатор кодека/Подсказка : MP3
Продолжительность : 33 м. 50 с.
Вид битрейта : Постоянный
Битрейт : 128 Кбит/сек
Каналы : 2 канала
Частота : 48,0 КГц
Частота кадров : 41,667 кадра/сек (1152 SPF)
Метод сжатия : С потерями
Размер потока : 31,0 Мбайт (7%)
Выравнивание : Соединение по промежуткам
Продолжительность промежутка : 42 мс. (1,00 видеокадр)
Время предзагрузки промежутка : 504 мс.
Библиотека кодирования : LAME3.98r
Настройки программы : -m s -V 4 -q 2 -lowpass 17 -b 128

Аудио #2
Идентификатор : 2
Формат : MPEG Audio
Версия формата : Version 1
Профиль формата : Layer 3
Настройки формата : Joint stereo / MS Stereo
Идентификатор кодека : 55
Идентификатор кодека/Подсказка : MP3
Продолжительность : 33 м. 50 с.
Вид битрейта : Постоянный
Битрейт : 128 Кбит/сек
Каналы : 2 канала
Частота : 48,0 КГц
Метод сжатия : С потерями
Размер потока : 31,0 Мбайт (7%)
Выравнивание : Соединение по промежуткам
Продолжительность промежутка : 42 мс. (1,00 видеокадр)
Время предзагрузки промежутка : 504 мс.
Библиотека кодирования : LAME3.97

скриншот  скриншот  скриншот  
pb.wtf



Скачать Метод Комински через торрент https://i106.fastpic.ru/big/2018/1208/7f/4551ae12adc890340fbb62a54655747f.jpg Скачать фильм Метод Комински через торрент бесплантно в хорошем качестве Описание: Сэнди Комински когда-то был популярным актёром, но слава не задержалась в его жизни, и теперь он преподает актёрское мастерство в ... 6 10 2
Торрент: Зарегистрирован [2019-01-07 20:37] · скачан: 23 раз
Статус: √ проверено
Размер: 2.65 GB
Как cкачать? Как скачать Метод Комински через торрент | qTorrent

% Раздел Тема Автор DL S | L
Зарубежные сериалы [ 8.75 GB ] Метод Комински / The Kominsky Method / Сезон: 2 / Серии: 1-8 из 8 [2019 WEB-DL 1080p] MVO [Jaskier] bober100 Скачать
1 | 0
Зарубежные сериалы [ 4.35 GB ] Метод Комински / The Kominsky Method / Сезон: 2 / Серии: 1-8 из 8 [2019 WEB-DL 720p] MVO [Jaskier] bober100 Скачать
1 | 0
Зарубежные сериалы [ 2.37 GB ] Метод Комински / The Kominsky Method / Сезон: 2 / Серии: 1-8 из 8 [2019 WEB-DLRip] MVO [Jaskier] bober100 Скачать
1 | 0
Зарубежные сериалы [ 9.08 GB ] Метод Комински / The Kominsky Method / Сезон: 2 / Серии: 1-8 из 8 [2019 WEBRip 1080p] MVO [TVShows] bober100 Скачать
1 | 0
Зарубежные сериалы [ 8.04 GB ] Метод Комински / The Kominsky Method / Сезон: 2 / Серии: 1-7 из 8 [2019 WEB 1080p] MVO [Lostfilm] bober100 Скачать
1 | 0
Зарубежные сериалы [ 10.05 GB ] Метод Комински / The Kominsky Method / Сезон: 2 / Серии: 1-8 из 8 [2019 WEBRip 1080p] [MVO] killermax2013 Скачать
1 | 0
Зарубежные сериалы [ 2.03 GB ] Метод Комински / The Kominsky Method / Сезон: 2 / Серии: 1-8 из 8 [2019 WEBRip] [MVO] killermax2013 Скачать
1 | 0

28-11-2019 20:33  

Отключить всю рекламу на сайте

    Дорогой пользователь! Огромная просьба, поблагодарите релизера, оцените раздачу и оставьте свои комментарий, если Вы скачали Метод Комински через торрент бесплатно! Внесите свою лепту в развитие PiratBit!
    Комментировать посты могут только пользователи прошедшие не сложную регистрацию
    Показать сообщения:    

    Метод Комински через торрент
    Скачать бесплатно Метод Комински
    Метод Комински скачать торрент
    Метод Комински смотреть онлайн
    Cкачать фильм Метод Комински бесплатно
    Метод Комински скачать торрент в хорошем качестве
    Метод Комински смотреть онлайн бесплатно в хорошем качестве


    Вы не можете начинать темы
    Вы не можете отвечать на сообщения
    Вы не можете редактировать свои сообщения
    Вы не можете удалять свои сообщения
    Вы не можете голосовать в опросах
    Вы не можете прикреплять файлы к сообщениям
    Вы можете скачивать файлы