Ссылка на приватное зеркало нашего сайта всего за 1$. Внимание количество ограничено!!!

2 сезон

iTunes

1 сезон

1

2 сезон

2 сезон

iTunes

1 сезон

RePack

30

Новинка

ВАЖНО

ИГРА 18+

pack

RePack

MK11
pack

Забери бонус

RePack

jed

!!Акция!!

Alien_Rage

RePack

fifa19

RePack

Assassins Creed: Odyssey

RePack

NEED FOR SPEED™ PAYBACK

4 сезон

9 сезон

Бесстыжие 9 сезон

Все сериалы

все сериалы на PB.wtf

RePack

FAR CRY 5
  

Метод Комински / The Kominsky Method / Сезон 1, Серии: 1-8 из 8 (Энди Теннант, Бет МакКарти-Миллер, Дональд Питри) [2018, комедия, WEB-DL 1080p] [MVO] (Lostfilm) pb.wtf

Метод Комински через торрент pb.wtf

Раздают: 2 [ 0 KB/s ]
Размер: 9.3 GB | Добавлен: 1 год 10 мес. назад | Торрент скачан:66 раз
Скачать  

07-01-2019 20:42 Метод Комински Скачать торрент  



Метод Комински / The Kominsky Method / Сезон 1


Год выпуска: 2018
Страна: США
Жанр: комедия
Продолжительность: 00:30:00

Перевод: Профессиональный (многоголосый закадровый) Lostfilm

Режиссёр: Энди Теннант, Бет МакКарти-Миллер, Дональд Питри
В ролях: Майкл Дуглас, Алан Аркин, Сара Бэйкер, Нэнси Трэвис, Дэнни ДеВито, Дженна Линг, Кэйси Томас Браун, Эшли ЛаТроп, Грэхэм Роджерс, Мелисса Тэнг

Описание: Сэнди Комински когда-то был популярным актёром, но слава не задержалась в его жизни, и теперь он преподает актёрское мастерство в Голливуде.

скриншот  

Качество: WEB-DL 1080p (Netflix)
Контейнер: MKV
Видео: H.264/AVC, 1920x1016p (1.89:1), 23.976 fps, ~5179 kbps, ~0.111 bit/pixel
Аудио №1: Русский E-AC3/DD+ 5.1, 48 kHz, 640 kbps
Аудио №2: Английский E-AC3/DD+ 5.1, 48 kHz, 640 kbps
Субтитры: Русские (Forced), Русские, Английские (SDH)
General
Unique ID : 237225694083793205179059969690372127579 (0xB27801BC6D0D377D9B9793A95DF7BB5B)
Complete name : The.Kominsky.Method.2018.S01.1080p.NF.WEB-DL.H.264.RUS.LF.DDP5.1.SRT\The.Kominsky.Method.S01E01.Chapter.1.An.Actor.Avoids.1080p.NF.WEB-DL.H.264.RUS.LF.DDP5.1.SRT.mkv
Format : Matroska
Format version : Version 4 / Version 2
File size : 1.51 GiB
Duration : 33 min 28 s
Overall bit rate : 6 462 kb/s
Movie name : The Kominsky Method, Season 1 / Chapter 1: An Actor Avoids
Track name/Position : 1
Track name/Total : 8
Description : As Sandy gets to know a new student better, he puts off visiting an old friend who wants to see him. Norman copes with a difficult issue at home.
Released date : UTC 2018-11-16 12:00:00
Writing application : mkvmerge v30.1.0 ('Forever And More') 64-bit
Writing library : libebml v1.3.6 + libmatroska v1.4.9
Cover : Yes
Attachments : small_cover.jpg / cover.jpg

Video
ID : 1
Format : AVC
Format/Info : Advanced Video Codec
Format profile : Main@L4.1
Format settings : CABAC / 4 Ref Frames
Format settings, CABAC : Yes
Format settings, RefFrames : 4 frames
Codec ID : V_MPEG4/ISO/AVC
Duration : 33 min 28 s
Bit rate : 5 179 kb/s
Width : 1 920 pixels
Height : 1 016 pixels
Display aspect ratio : 1.890
Frame rate mode : Constant
Frame rate : 23.976 (24000/1001) FPS
Color space : YUV
Chroma subsampling : 4:2:0
Bit depth : 8 bits
Scan type : Progressive
Bits/(Pixel*Frame) : 0.111
Stream size : 1.21 GiB (80%)
Language : English
Default : Yes
Forced : No
Color range : Limited
Color primaries : BT.709
Transfer characteristics : BT.709
Matrix coefficients : BT.709

Audio #1
ID : 2
Format : E-AC-3
Format/Info : Enhanced Audio Coding 3
Format settings, Endianness : Big
Codec ID : A_EAC3
Duration : 33 min 28 s
Bit rate mode : Constant
Bit rate : 640 kb/s
Channel(s) : 6 channels
Channel positions : Front: L C R, Side: L R, LFE
Sampling rate : 48.0 kHz
Frame rate : 187.500 FPS (256 SPF)
Compression mode : Lossy
Stream size : 153 MiB (10%)
Title : E-AC3 5.1 @ 640 kbps - MVO, Lostfilm
Language : Russian
Service kind : Complete Main
Default : Yes
Forced : No
Released date : UTC 2018-12-19 17:37:51

Audio #2
ID : 3
Format : E-AC-3
Format/Info : Enhanced Audio Coding 3
Format settings, Endianness : Big
Codec ID : A_EAC3
Duration : 33 min 28 s
Bit rate mode : Constant
Bit rate : 640 kb/s
Channel(s) : 6 channels
Channel positions : Front: L C R, Side: L R, LFE
Sampling rate : 48.0 kHz
Frame rate : 187.500 FPS (256 SPF)
Compression mode : Lossy
Stream size : 153 MiB (10%)
Title : E-AC3 5.1 @ 640 kbps - Original
Language : English
Service kind : Complete Main
Default : No
Forced : No

Text #1
ID : 4
Format : UTF-8
Codec ID : S_TEXT/UTF8
Codec ID/Info : UTF-8 Plain Text
Duration : 33 min 3 s
Bit rate : 1 b/s
Count of elements : 8
Stream size : 370 Bytes (0%)
Title : Forced
Language : Russian
Default : Yes
Forced : Yes

Text #2
ID : 5
Format : UTF-8
Codec ID : S_TEXT/UTF8
Codec ID/Info : UTF-8 Plain Text
Duration : 33 min 3 s
Bit rate : 105 b/s
Count of elements : 568
Stream size : 25.5 KiB (0%)
Title : Netflix
Language : Russian
Default : No
Forced : No

Text #3
ID : 6
Format : UTF-8
Codec ID : S_TEXT/UTF8
Codec ID/Info : UTF-8 Plain Text
Duration : 31 min 28 s
Bit rate : 75 b/s
Count of elements : 604
Stream size : 17.4 KiB (0%)
Title : SDH
Language : English
Default : No
Forced : No
скриншот  скриншот  скриншот  
pb.wtf



Скачать Метод Комински через торрент https://m.media-amazon.com/images/M/MV5BMjUzNDU1MDM0NF5BMl5BanBnXkFtZTgwOTM5NzI1NjM@._V1_SY500_CR0,0,0,500_AL_.jpg Скачать фильм Метод Комински через торрент бесплантно в хорошем качестве Описание: Сэнди Комински когда-то был популярным актёром, но слава не задержалась в его жизни, и теперь он преподает актёрское мастерство в ... 5 10 1
Торрент: Зарегистрирован [2019-01-07 20:42] · скачан: 66 раз
Статус: √ проверено
Размер: 9.3 GB
Как cкачать? Как скачать Метод Комински через торрент | qTorrent

% Раздел Тема Автор DL S | L
Зарубежные сериалы [ 8.75 GB ] Метод Комински / The Kominsky Method / Сезон: 2 / Серии: 1-8 из 8 [2019 WEB-DL 1080p] MVO [Jaskier] bober100 Скачать
1 | 0
Зарубежные сериалы [ 4.35 GB ] Метод Комински / The Kominsky Method / Сезон: 2 / Серии: 1-8 из 8 [2019 WEB-DL 720p] MVO [Jaskier] bober100 Скачать
1 | 0
Зарубежные сериалы [ 2.37 GB ] Метод Комински / The Kominsky Method / Сезон: 2 / Серии: 1-8 из 8 [2019 WEB-DLRip] MVO [Jaskier] bober100 Скачать
1 | 0
Зарубежные сериалы [ 9.08 GB ] Метод Комински / The Kominsky Method / Сезон: 2 / Серии: 1-8 из 8 [2019 WEBRip 1080p] MVO [TVShows] bober100 Скачать
1 | 0
Зарубежные сериалы [ 8.04 GB ] Метод Комински / The Kominsky Method / Сезон: 2 / Серии: 1-7 из 8 [2019 WEB 1080p] MVO [Lostfilm] bober100 Скачать
2 | 0
Зарубежные сериалы [ 10.05 GB ] Метод Комински / The Kominsky Method / Сезон: 2 / Серии: 1-8 из 8 [2019 WEBRip 1080p] [MVO] killermax2013 Скачать
1 | 0
Зарубежные сериалы [ 2.03 GB ] Метод Комински / The Kominsky Method / Сезон: 2 / Серии: 1-8 из 8 [2019 WEBRip] [MVO] killermax2013 Скачать
1 | 0

28-11-2019 20:33  

Отключить всю рекламу на сайте

    Дорогой пользователь! Огромная просьба, поблагодарите релизера, оцените раздачу и оставьте свои комментарий, если Вы скачали Метод Комински через торрент бесплатно! Внесите свою лепту в развитие PiratBit!
    Комментировать посты могут только пользователи прошедшие не сложную регистрацию
    Показать сообщения:    

    Метод Комински через торрент
    Скачать бесплатно Метод Комински
    Метод Комински скачать торрент
    Метод Комински смотреть онлайн
    Cкачать фильм Метод Комински бесплатно
    Метод Комински скачать торрент в хорошем качестве
    Метод Комински смотреть онлайн бесплатно в хорошем качестве


    Вы не можете начинать темы
    Вы не можете отвечать на сообщения
    Вы не можете редактировать свои сообщения
    Вы не можете удалять свои сообщения
    Вы не можете голосовать в опросах
    Вы не можете прикреплять файлы к сообщениям
    Вы можете скачивать файлы