Аватар: Путь воды

Лицензия

В те дни

1 сезон

скачать смотреть онлайн John Wick Chapter 4

MVO

Крик 6

Дубляж

13 клиническая

3 сезон

Восстание зловещих мертвецов

Дубляж

Одни из нас

Дубляж

Dead Island 2 Gold

Gold

Deluxe RUS

Deluxe RUS

pack

Рекомендуем

ВАЖНО

ВАЖНО

30

Repack

The Lord of the Rings: Gollum

Лицензия

jed

RePack

nioh2

RePack

RDR2

RePack

NEED FOR SPEED™ PAYBACK

RePack

скачать торрент

Кинопоиск HD

Острые козырьки 6 сезон

6 сезон

FAR CRY 6

RePack

скачать торрент

Лицензия

скачать торрент

MVO

1

1 сезон

скачать торрент

1 сезон

скачать торрент

Лицензия

  

Когда Гарри встретил Седжал / Jab Harry met Sejal (Имтияз Али) [2017, драма, мелодрама, комедия, BDRip 1080p ] 2 x MVO

Когда Гарри встретил Седжал через торрент pb.wtf

Размер: 15.21 GB | Добавлен: 4 года 4 мес. назад | Торрент скачан:15 раз
Смотреть онлайн | Скачать | Поддержите нас   

08-01-2019 06:30 Когда Гарри встретил Седжал Скачать торрент  

Название: Когда Гарри встретил Седжал
Оригинальное название: Jab Harry met Sejal
Год выпуска: 2017
Страна: Индия
Жанр: драма, мелодрама, комедия
Продолжительность: 02:23:01
Перевод: закадровый многоголосый

Режиссер: Имтияз Али
В ролях: Шахрукх Кхан, Анушка Шарма, Бьорн Фрайберг, Матавиоус Гейлс, Аттила Дж. Керекеш, Кристина Мерфи, Рана Ранбир, Чандан Рой Саньял

Описание: Харриндер Сингх или просто Харри – самый заядлый бабник в Амстердаме. Он работает гидом и предпочитает жить в своё удовольствие, не обременяя себя никакими обязательствами. Но однажды в аэропорту к нему подходит девушка и требует помочь отыскать кольцо, которое она потеряла в Амстердаме. Именно с этого момента для Харри начинается новая глава, которая перевернёт всю его жизнь...



Качество: BDRip 1080p
Формат: MKV
Видео: MPEG-4 AVC, 12 Mбит/с, 1920x802
Аудио 1: русский, DTS, 1509 kbps, 6 ch, 48 kHz [закадровый многоголосый, FAN studio]
Аудио 2: русский, AC3, 192 kbps, 2 ch, 48 kHz [закадровый многоголосый, Honey&Haseena]
Аудио 3: хинди, DTS, 1509 kbps, 6 ch, 48 kHz [оригинал]
Субтитры 1: русские (текст песен)
Субтитры 2: английские
Главы/чаптеры
Общее
Уникальный идентификатор : 194489327016931227248260615103331996123 (0x925148290FFB49878D4096FD94F491DB)
Полное имя : D:\Video\Когда Гарри встретил Седжал.2017.BDRip 1080p by msltel.mkv
Формат : Matroska
Версия формата : Version 4
Размер файла : 15,2 Гбайт
Продолжительность : 2 ч. 23 м.
Общий поток : 15,2 Мбит/сек
Название фильма : Rip by msltel
Дата кодирования : UTC 2019-01-08 07:20:34
Программа кодирования : mkvmerge v8.2.0 ('World of Adventure') 64bit
Библиотека кодирования : libebml v1.3.1 + libmatroska v1.4.2

Видео
Идентификатор : 1
Формат : AVC
Формат/Информация : Advanced Video Codec
Профиль формата : [email protected]
Настройки формата : CABAC / 4 Ref Frames
Параметр CABAC формата : Да
Параметр RefFrames формата : 4 кадра
Идентификатор кодека : V_MPEG4/ISO/AVC
Продолжительность : 2 ч. 23 м.
Битрейт : 12,0 Мбит/сек
Ширина : 1920 пикселей
Высота : 802 пикселя
Соотношение сторон : 2,40:1
Режим частоты кадров : Постоянный
Частота кадров : 24,000 кадра/сек
Цветовое пространство : YUV
Субдискретизация насыщенности : 4:2:0
Битовая глубина : 8 бит
Тип развёртки : Прогрессивная
Бит/(Пиксели*Кадры) : 0.325
Размер потока : 12,0 Гбайт (79%)
Библиотека кодирования : x264 core 157 r2935 545de2f
Настройки программы : cabac=1 / ref=4 / deblock=1:-2:-2 / analyse=0x3:0x113 / me=umh / subme=11 / psy=1 / psy_rd=1.00:0.15 / mixed_ref=1 / me_range=32 / chroma_me=1 / trellis=2 / 8x8dct=1 / cqm=0 / deadzone=21,11 / fast_pskip=0 / chroma_qp_offset=-3 / threads=6 / lookahead_threads=1 / sliced_threads=0 / nr=0 / decimate=1 / interlaced=0 / bluray_compat=0 / constrained_intra=0 / bframes=7 / b_pyramid=2 / b_adapt=2 / b_bias=0 / direct=1 / weightb=1 / open_gop=0 / weightp=2 / keyint=230 / keyint_min=23 / scenecut=40 / intra_refresh=0 / rc_lookahead=40 / rc=crf / mbtree=0 / crf=17.4 / qcomp=0.60 / qpmin=0 / qpmax=69 / qpstep=4 / vbv_maxrate=62500 / vbv_bufsize=78125 / crf_max=0.0 / nal_hrd=none / filler=0 / ip_ratio=1.40 / pb_ratio=1.30 / aq=1:1.00
Язык : Hindi
Default : Да
Forced : Нет

Аудио #1
Идентификатор : 2
Формат : DTS
Формат/Информация : Digital Theater Systems
Идентификатор кодека : A_DTS
Продолжительность : 2 ч. 23 м.
Вид битрейта : Постоянный
Битрейт : 1510 Кбит/сек
Каналы : 6 каналов
Channel layout : C L R Ls Rs LFE
Частота : 48,0 КГц
Частота кадров : 93,750 кадра/сек (512 SPF)
Битовая глубина : 24 бит
Метод сжатия : С потерями
Размер потока : 1,51 Гбайт (10%)
Заголовок : MVO FAN studio
Язык : Russian
Default : Да
Forced : Нет

Аудио #2
Идентификатор : 3
Формат : AC-3
Формат/Информация : Audio Coding 3
Коммерческое название : Dolby Digital
Идентификатор кодека : A_AC3
Продолжительность : 2 ч. 23 м.
Вид битрейта : Постоянный
Битрейт : 192 Кбит/сек
Каналы : 2 канала
Channel layout : L R
Частота : 48,0 КГц
Частота кадров : 31,250 кадров/сек (1536 SPF)
Битовая глубина : 16 бит
Метод сжатия : С потерями
Размер потока : 196 Мбайт (1%)
Заголовок : MVO Honey&Haseena
Язык : Russian
ServiceKind/String : Complete Main
Default : Нет
Forced : Нет

Аудио #3
Идентификатор : 4
Формат : DTS
Формат/Информация : Digital Theater Systems
Идентификатор кодека : A_DTS
Продолжительность : 2 ч. 23 м.
Вид битрейта : Постоянный
Битрейт : 1509 Кбит/сек
Каналы : 6 каналов
Channel layout : C L R Ls Rs LFE
Частота : 48,0 КГц
Частота кадров : 93,750 кадра/сек (512 SPF)
Битовая глубина : 24 бит
Метод сжатия : С потерями
Размер потока : 1,51 Гбайт (10%)
Заголовок : original
Язык : Hindi
Default : Нет
Forced : Нет

Текст #1
Идентификатор : 5
Формат : UTF-8
Идентификатор кодека : S_TEXT/UTF8
Идентификатор кодека/Информация : UTF-8 Plain Text
Продолжительность : 2 ч. 0 м.
Битрейт : 11 бит/сек
ElementCount : 192
Размер потока : 10,3 Кбайт (0%)
Заголовок : русские (текст песен)
Язык : Russian
Default : Нет
Forced : Нет

Текст #2
Идентификатор : 6
Формат : UTF-8
Идентификатор кодека : S_TEXT/UTF8
Идентификатор кодека/Информация : UTF-8 Plain Text
Продолжительность : 2 ч. 18 м.
Битрейт : 43 бит/сек
ElementCount : 1459
Размер потока : 44,6 Кбайт (0%)
Заголовок : английские
Язык : English
Default : Нет
Forced : Нет

Меню
00:00:00.000 : :Глава 01
00:01:56.833 : :Глава 02
00:05:49.458 : :Глава 03
00:17:26.458 : :Глава 04
00:26:01.416 : :Глава 05
00:29:59.375 : :Глава 06
00:37:54.875 : :Глава 07
00:52:05.625 : :Глава 08
00:55:45.000 : :Глава 09
00:59:24.750 : :Глава 10
01:03:54.541 : :Глава 11
01:07:33.125 : :Глава 12
01:10:09.333 : :Глава 13
01:23:53.000 : :Глава 14
01:26:44.416 : :Глава 15
01:39:19.541 : :Глава 16
01:45:39.458 : :Глава 17
01:47:24.208 : :Глава 18
01:50:51.625 : :Глава 19
02:00:36.083 : :Глава 20
02:06:02.458 : :Глава 21
02:14:49.000 : :Глава 22
02:15:49.750 : :Глава 23
02:20:02.416 : :Глава 24




Скачать Когда Гарри встретил Седжал через торрент https://c.radikal.ru/c43/1901/8f/fb56cf70abab.jpg Скачать, смотреть онлайн Когда Гарри встретил Седжал бесплатно в хорошем качестве Описание: Харриндер Сингх или просто Харри – самый заядлый бабник в Амстердаме. Он работает гидом и предпочитает жить в своё удовольствие, ... 10 10 2
Info! Золотая раздача, скачанное не засчитывается.
Торрент: Зарегистрирован [2019-01-08 06:30] · скачан: 15 раз
Статус: √ проверено
Размер: 15.21 GB
Как cкачать? Как скачать Когда Гарри встретил Седжал через торрент | UTorrent

% Раздел Тема Автор DL S | L
Фильмы [HD 720p, 1080p] (Хороший звук DUB, MVO) [ 5.49 GB ] Когда Гарри встретил Седжал / Jab Harry met Sejal | MVO | 720p msltel Скачать
1 | 0

28-11-2019 20:33  


Отключить вcю реклaмy на сайте, в т.ч. и в плеере онлайн просмотра!

    Дорогой пользователь! Огромная просьба, поблагодарите релизера, оцените раздачу и оставьте свои комментарий, если Вы скачали Когда Гарри встретил Седжал через торрент бесплатно!!
    Комментировать посты могут только пользователи прошедшие не сложную регистрацию
    Показать сообщения:    


    Когда Гарри встретил Седжал через торрент
    Скачать бесплатно Когда Гарри встретил Седжал
    Когда Гарри встретил Седжал скачать торрент
    Когда Гарри встретил Седжал смотреть онлайн
    Cкачать фильм Когда Гарри встретил Седжал бесплатно
    Когда Гарри встретил Седжал скачать торрент в хорошем качестве
    Когда Гарри встретил Седжал смотреть онлайн бесплатно в хорошем качестве
    Вы не можете начинать темы
    Вы не можете отвечать на сообщения
    Вы не можете редактировать свои сообщения
    Вы не можете удалять свои сообщения
    Вы не можете голосовать в опросах
    Вы не можете прикреплять файлы к сообщениям
    Вы можете скачивать файлы