>

5.6

iTunes

6.1

MVO

5.7

MVO

1

7.4

1 сезон

6.8

iTunes

7.2

1 сезон

13

6.7

1 сезон

8.3

RePack

30

Deluxe

pack

9.9

Лицензия

ВАЖНО

ИГРА 18+

pack

7.3

RePack

MK11

7.7

RePack

jed

7.8

RePack

fifa19

8.5

RePack

RDR2

RePack

NEED FOR SPEED™ PAYBACK

4 сезон

9 сезон

Бесстыжие 9 сезон

Все сериалы

все сериалы на PB.wtf

RePack

FAR CRY 5

Anonymous, доброе утро, мы катастрофически не успеваем собрать деньги на оплату серверов, помогите нам пожалуйста 5,10,15р., для нас важна любая помощь . В качестве благодарности мы отключим Вам всю рекламу на сайте (укажите свой ник в строку Ваше имя)!

×
  
Magnet ссылка

Фагот (Борис Гуц) [2018, комедия, WEB-DLRip] [iTunes] pb.wtf

Фагот через торрент pb.wtf

Размер: 952 MB | Добавлен: 2 года 8 мес. назад | Торрент скачан:303 раза
Смотреть онлайн Фагот | Скачать    Ребята, помогите собрать деньги на оплату серверов!!!

08-01-2019 07:20 Фагот Скачать торрент  

Фагот Год выпуска: 2018
Страна: Россия
Жанр: комедия
Продолжительность: 01:00:26
Перевод: Не требуется | iTunes
Субтитры: отсутствуют

Режиссер: Борис Гуц



В ролях:

Анастасия Пронина, Юлия Ауг, Ольга Кавалай-Аксенова, Александр Дривень, Анна Даукаева

Описание:

Как расстаться с ревнивой девушкой? А если она еще и редкостная стерва? Максим не знает, ведь он «хочет, чтобы всем было хорошо». Пока мама и старшая сестра сыплют бесполезными советами, Максим придумывает самый абсурдный предлог для разрыва, который приводит к катастрофичным последствиям...

Качество: WEB-DLRip
Формат: AVI

Видео: XviD, 720x304, ~1998 kbps, 25,000 fps
Аудио: AC3, 2.0 ch, 48 kHz, 192 kbps | iTunes
скриншот  скриншот  скриншот  скриншот  

General
Полное имя : F:TorrentFagotWEBDLRip.avi
Формат : AVI
Формат/Информация : Audio Video Interleave
Размер файла : 952 MiB
Продолжительность : 1 h 0 min
Общий поток : 2 201 kb/s
Программа кодирования : XviD4PSP 6.0 / 54.27.101

Video
Идентификатор : 0
Формат : MPEG-4 Visual
Профиль формата : Advanced Simple@L5
Настройки формата : BVOP2 / Custom Matrix
Параметр BVOP формата : 2
Параметр QPel формата : No
Параметр GMC формата : No warppoints
Параметр матрицы формата : Custom
Идентификатор кодека : XVID
Идентификатор кодека/Подсказка : XviD
Продолжительность : 1 h 0 min
Битрейт : 1 998 kb/s
Ширина : 720 pixels
Высота : 304 pixels
Соотношение сторон : 2.35:1
Частота кадров : 25.000 FPS
Цветовое пространство : YUV
Субдискретизация насыщенности : 4:2:0
Битовая глубина : 8 bits
Тип развёртки : Progressive
Метод сжатия : Lossy
Бит/(Пиксели*Кадры) : 0.365
Размер потока : 864 MiB (91%)
Библиотека кодирования : XviD 73

Audio
Идентификатор : 1
Формат : AC-3
Формат/Информация : Audio Coding 3
Идентификатор кодека : 2000
Продолжительность : 1 h 0 min
Вид битрейта : Constant
Битрейт : 192 kb/s
Каналы : 2 channels
Расположение каналов : Front: L R
Частота : 48.0 kHz
Частота кадров : 31.250 FPS (1536 SPF)
Битовая глубина : 16 bits
Метод сжатия : Lossy
Размер потока : 83.0 MiB (9%)
Выравнивание : Aligned on interleaves
Продолжительность промежутка : 32 ms (0.80 video frame)

pb.wtf



Скачать Фагот через торрент https://a.radikal.ru/a37/1812/04/c68924ddbeb8.jpg Скачать, смотреть онлайн Фагот бесплантно в хорошем качестве Описание: Как расстаться с ревнивой девушкой? А если она еще и редкостная стерва? Максим не знает, ведь он «хочет, чтобы всем было хорошо». ... 8.2 10 10
Торрент: Зарегистрирован [2019-01-08 07:20] · скачан: 303 раз
Статус: √ проверено
Размер: 952 MB
Как cкачать? Как скачать Фагот через торрент | UTorrent

% Раздел Тема Автор DL S | L
T Наши фильмы 2018-2019 [ 899 MB ] Фагот [2018 WEB-DLRip-AVC] - ExKinoRay Enigma2010 Скачать
1 | 0
Наши фильмы (HD, WEB-DL 720p, 1080p) [ 2.01 GB ] Фагот [2018 WEB-DL 1080p] bober100 Скачать
2 | 0

28-11-2019 20:33  

Отключить всю рекламу на сайте

08-01-2019 07:57 Фагот Скачать торрент  

опять про пидаров??? Фагот с фр. - пид*расpb.wtf



08-01-2019 15:16 Фагот Скачать торрент  

pb.wtf



    Дорогой пользователь! Огромная просьба, поблагодарите релизера, оцените раздачу и оставьте свои комментарий, если Вы скачали Фагот через торрент бесплатно!
    Комментировать посты могут только пользователи прошедшие не сложную регистрацию
    Показать сообщения:    

    Фагот через торрент
    Скачать бесплатно Фагот
    Фагот скачать торрент
    Фагот смотреть онлайн
    Cкачать фильм Фагот бесплатно
    Фагот скачать торрент в хорошем качестве
    Фагот смотреть онлайн бесплатно в хорошем качестве


    Вы не можете начинать темы
    Вы не можете отвечать на сообщения
    Вы не можете редактировать свои сообщения
    Вы не можете удалять свои сообщения
    Вы не можете голосовать в опросах
    Вы не можете прикреплять файлы к сообщениям
    Вы можете скачивать файлы