Ссылка на приватное зеркало нашего сайта всего за 1$. Внимание количество ограничено!!!

2 сезон

iTunes

1 сезон

1

2 сезон

2 сезон

iTunes

1 сезон

RePack

30

Ultimate

ВАЖНО

ИГРА 18+

pack

RePack

MK11
pack

Забери бонус

RePack

jed

!!Акция!!

Alien_Rage

RePack

fifa19

RePack

Assassins Creed: Odyssey

RePack

NEED FOR SPEED™ PAYBACK

4 сезон

9 сезон

Бесстыжие 9 сезон

Все сериалы

все сериалы на PB.wtf

RePack

FAR CRY 5
  

Суперинтендант / The Super (Штефан Рик) [2017, Ужасы, триллер, BD Remux 1080p] MVO [HDRezka Studio] pb.wtf

Суперинтендант через торрент pb.wtf

Размер: 18.4 GB | Добавлен: 1 год 10 мес. назад | Торрент скачан:14 раз
Скачать  

08-01-2019 07:54 Суперинтендант Скачать торрент  

Суперинтендант / The Super«All Roads Lead Here» Год выпуска: 2017
Страна: США
Жанр: Ужасы, триллер
Продолжительность: 01:29:06
Перевод: Профессиональный (многоголосый) | HDRezka Studio
Субтитры: Английские (полные, SDH)

Режиссер: Штефан Рик

rating

В ролях:

Патрик Флюгер, Вэл Килмер, Луиса Краузе, Маттеа Конфорти, Тейлор Ричардсон, Пол Бен-Виктор, Юл Васкес, Андреа Линн Грин, Траварис Спирс, Мелисса Болона

Описание:

Жизнь была довольно жестокой по отношению к бывшему полицейскому Филу Лоджу. Пережив тяжелую утрату, он решил устроиться управляющим в огромный многоквартирный дом в центре Нью-Йорка, чтобы иметь возможность растить двух своих дочерей в достатке и быть для них лучшим отцом. Однажды его младшая дочь Роуз попадает в подвал здания, где она привлекает внимание жуткого дворника Уолтера. Фила беспокоит такой нездоровый интерес к его семье, но ситуация усугубляется таинственными исчезновениями жильцов, которые ему предстоит расследовать...

Качество: BD Remux 1080p
Формат: MKV

Видео: 1920x1080 (2.40:1), 23,976 fps, x264 ~25,9 Mbps avg, 0.521 bit/pixel
Аудио#1: 48 kHz, AC3 Dolby Digital, 2 (L,R) ch, ~192.00 kbps avg | RUS (HDRezka Studio)
Аудио#2: DTS-HD MA, 6 ch, 48 kHz, 3473 kbps, 24-bit (DTS Core 6 ch, 48 kHz, 1509 kbps) | ENG
скриншот  скриншот  скриншот  

General
Unique ID : 293507485791915171866586927173540339958 (0xDCCF7C4EE52F757D316C1680180D60F6)
Complete name : The.Super.2018.Remux.mkv
Format : Matroska
Format version : Version 4 / Version 2
File size : 18.4 GiB
Duration : 1 h 29 min
Overall bit rate mode : Variable
Overall bit rate : 29.6 Mb/s
Encoded date : UTC 2019-01-07 12:32:18
Writing application : mkvmerge v20.0.0 ('I Am The Sun') 64-bit
Writing library : libebml v1.3.5 + libmatroska v1.4.8

Video
ID : 1
Format : AVC
Format/Info : Advanced Video Codec
Format profile : High@L4.1
Format settings : CABAC / 4 Ref Frames
Format settings, CABAC : Yes
Format settings, RefFrames : 4 frames
Codec ID : V_MPEG4/ISO/AVC
Duration : 1 h 29 min
Bit rate mode : Variable
Bit rate : 25.9 Mb/s
Maximum bit rate : 37.0 Mb/s
Width : 1 920 pixels
Height : 1 080 pixels
Display aspect ratio : 16:9
Frame rate mode : Constant
Frame rate : 23.976 (24000/1001) FPS
Color space : YUV
Chroma subsampling : 4:2:0
Bit depth : 8 bits
Scan type : Progressive
Bits/(Pixel*Frame) : 0.521
Stream size : 16.1 GiB (88%)
Language : English
Default : Yes
Forced : No

Audio #1
ID : 2
Format : AC-3
Format/Info : Audio Coding 3
Codec ID : A_AC3
Duration : 1 h 29 min
Bit rate mode : Constant
Bit rate : 192 kb/s
Channel(s) : 2 channels
Channel positions : Front: L R
Sampling rate : 48.0 kHz
Frame rate : 31.250 FPS (1536 SPF)
Bit depth : 16 bits
Compression mode : Lossy
Stream size : 122 MiB (1%)
Language : Russian
Service kind : Complete Main
Default : Yes
Forced : No

Audio #2
ID : 3
Format : DTS
Format/Info : Digital Theater Systems
Format profile : MA / Core
Codec ID : A_DTS
Duration : 1 h 29 min
Bit rate mode : Variable / Constant
Bit rate : 3 473 kb/s / 1 509 kb/s
Channel(s) : 6 channels
Channel positions : Front: L C R, Side: L R, LFE
Sampling rate : 48.0 kHz
Frame rate : 93.750 FPS (512 SPF)
Bit depth : 24 bits
Compression mode : Lossless / Lossy
Stream size : 2.16 GiB (12%)
Language : English
Default : No
Forced : No

Text
ID : 4
Format : UTF-8
Codec ID : S_TEXT/UTF8
Codec ID/Info : UTF-8 Plain Text
Duration : 1 h 24 min
Bit rate : 33 b/s
Count of elements : 755
Stream size : 20.7 KiB (0%)
Language : English
Default : No
Forced : No

Menu
00:00:00.000 : en:Chapter 1
00:06:45.738 : en:Chapter 2
00:13:04.325 : en:Chapter 3
00:16:20.479 : en:Chapter 4
00:23:33.870 : en:Chapter 5
00:28:27.914 : en:Chapter 6
00:33:57.952 : en:Chapter 7
00:38:33.686 : en:Chapter 8
00:43:48.792 : en:Chapter 9
00:48:32.618 : en:Chapter 10
00:55:59.814 : en:Chapter 11
01:00:18.323 : en:Chapter 12
01:08:20.346 : en:Chapter 13
01:11:29.201 : en:Chapter 14
01:16:24.997 : en:Chapter 15
01:22:49.547 : en:Chapter 16

pb.wtf



Скачать Суперинтендант через торрент https://i107.fastpic.ru/big/2019/0103/2c/c58a1d159b9b1b8357436b3e0fd02d2c.jpg Скачать фильм Суперинтендант через торрент бесплантно в хорошем качестве Описание: Жизнь была довольно жестокой по отношению к бывшему полицейскому Филу Лоджу. Пережив тяжелую утрату, он решил устроиться ... 10 10 3
Торрент: Зарегистрирован [2019-01-08 07:54] · скачан: 14 раз
Статус: T временная
Размер: 18.4 GB
Как cкачать? Как скачать Суперинтендант через торрент | qTorrent

% Раздел Тема Автор DL S | L
Фильмы [HD 720p, 1080p] (Хороший звук DUB, MVO) [ 4.38 GB ] Суперинтендант / Смотритель / The Super [2017 BDRip 720p] MVO bober100 Скачать
1 | 0
Фильмы 2017 [DVDrip, WEB-DLRip, HDrip] (DUB, MVO) [ 745 MB ] Суперинтендант / Смотритель / The Super [2017 HDRip] MVO bober100 Скачать
1 | 0
Фильмы [HD 720p, 1080p] (Хороший звук DUB, MVO) [ 8.73 GB ] Суперинтендант / Смотритель / The Super [2017 BDRip 1080p] MVO bober100 Скачать
1 | 0
Фильмы 2017 [DVDrip, WEB-DLRip, HDrip] (DUB, MVO) [ 1.46 GB ] Суперинтендант / Смотритель / The Super [2017 BDRip] MVO bober100 Скачать
1 | 0

28-11-2019 20:33  

Отключить всю рекламу на сайте

    Дорогой пользователь! Огромная просьба, поблагодарите релизера, оцените раздачу и оставьте свои комментарий, если Вы скачали Суперинтендант через торрент бесплатно! Внесите свою лепту в развитие PiratBit!
    Комментировать посты могут только пользователи прошедшие не сложную регистрацию
    Показать сообщения:    

    Суперинтендант через торрент
    Скачать бесплатно Суперинтендант
    Суперинтендант скачать торрент
    Суперинтендант смотреть онлайн
    Cкачать фильм Суперинтендант бесплатно
    Суперинтендант скачать торрент в хорошем качестве
    Суперинтендант смотреть онлайн бесплатно в хорошем качестве


    Вы не можете начинать темы
    Вы не можете отвечать на сообщения
    Вы не можете редактировать свои сообщения
    Вы не можете удалять свои сообщения
    Вы не можете голосовать в опросах
    Вы не можете прикреплять файлы к сообщениям
    Вы можете скачивать файлы