Ссылка на приватное зеркало нашего сайта всего за 1$. Внимание количество ограничено!!!

2 сезон

iTunes

1 сезон

1

iTunes

iTunes

iTunes

1 сезон

RePack

30

ИГРА 18+

pack

ВАЖНО

!!Акция!!

Alien_RageХит недели

RePack

MK11
pack

Забери бонус

RePack

jed

!!Акция!!

Alien_Rage

RePack

fifa19

RePack

Assassins Creed: Odyssey

RePack

NEED FOR SPEED™ PAYBACK

4 сезон

9 сезон

Бесстыжие 9 сезон

Все сериалы

все сериалы на PB.wtf

RePack

FAR CRY 5
  

Несколько шагов до любви / Серии: 1-2 из 2 (Эдуард Пальмов) [2019, Мелодрама, HDTV 1080i] pb.wtf

Несколько шагов до любви через торрент pb.wtf

Размер: 10.08 GB | Добавлен: 1 год 9 мес. назад | Торрент скачан:9 раз
Скачать  

08-01-2019 08:28 Несколько шагов до любви Скачать торрент  

Несколько шагов до любвиГод выпуска: 2019
Страна: Россия
Жанр: Мелодрама
Продолжительность: ~ 01:30:00
Субтитры: отсутствуют

Режиссер: Эдуард Пальмов



В ролях:

Елена Захарова, Владислав Резник, Руслан Чернецкий, Сергей Ходьков, Наталья Аладко

Описание:

Лариса (Елена Захарова) – хозяйка сети магазинов одежды, готовится к свадьбе с успешным бизнесменом Михаилом (Руслан Чернецкий). Большой любви в их отношениях нет, но к этому браку Ларису подталкивает ее мать Наталья – властная женщина, которая всю жизнь руководит жизнью дочери.Но однажды на пороге Ларисы появляется молодой человек – Сергей (Сергей Ходьков), который утверждает, что он – ее сын. Лариса потрясена. Она действительно еще школьницей родила ребенка, но была уверена, что мальчик умер во время родов. Именно так ей сказала мать. Но все оказалось ложью.Сергей жил в детском доме, пока его не усыновил его отец – Дмитрий (Владислав Резник), первая любовь Ларисы. В юности Ларису с Димой тоже разлучила Наталья.Но теперь Дима запил – у него в жизни черная полоса. Погибла жена, оставив одного с маленькой дочкой, кроме того бизнес вот-вот рухнет.Сережу на днях забирают в армию, и помочь отцу и сестре будет некому. Именно поэтому он был вынужден разыскать Ларису, свою мать, которая, как он считает, предала отца и отказалась от него в роддоме…

Качество: HDTV 1080i
Формат: TS

Видео: MPEG-4 AVC, ~ 7100 Кбит/с, 1920x1080
Аудио: MP2, 2 ch, 192 Кбит/с
скриншот   скриншот   скриншот  

Общее
Идентификатор : 1 (0x1)
Полное имя : E:\Neskol'ko.shagov.do.lyubvi.2018.HDTV.1080i\Neskol'ko.shagov.do.lyubvi.01.2018.HDTV.1080i.ts
Формат : MPEG-TS
Размер файла : 4,90 Гбайт
Продолжительность : 1 ч. 31 м.
Режим общего битрейта : Переменный
Общий поток : 7654 Кбит/сек

Видео
Идентификатор : 2911 (0xB5F)
Идентификатор меню : 1192 (0x4A8)
Формат : AVC
Формат/Информация : Advanced Video Codec
Профиль формата : High@L4
Настройки формата : CABAC / 4 Ref Frames
Параметр CABAC формата : Да
Параметр RefFrames формата : 4 кадра
Идентификатор кодека : 27
Продолжительность : 1 ч. 31 м.
Битрейт : 7082 Кбит/сек
Ширина : 1920 пикселей
Высота : 1080 пикселей
Соотношение сторон : 16:9
Частота кадров : 25,000 кадров/сек
Цветовое пространство : YUV
Субдискретизация насыщенности : 4:2:0
Битовая глубина : 8 бит
Тип развёртки : MBAFF
Метод сохранения типа развёртки : Чередующиеся поля
Порядок развёртки : Верхнее поле первое
Бит/(Пиксели*Кадры) : 0.137
Размер потока : 4,54 Гбайт (93%)

Аудио
Идентификатор : 2912 (0xB60)
Идентификатор меню : 1192 (0x4A8)
Формат : MPEG Audio
Версия формата : Version 1
Профиль формата : Layer 2
Идентификатор кодека : 3
Продолжительность : 1 ч. 31 м.
Вид битрейта : Постоянный
Битрейт : 192 Кбит/сек
Каналы : 2 канала
Частота : 48,0 КГц
Частота кадров : 41,667 кадра/сек (1152 SPF)
Метод сжатия : С потерями
Задержка видео : -200 мс.
Размер потока : 126 Мбайт (3%)
Язык : Russian

pb.wtf



Скачать Несколько шагов до любви через торрент http://img15.lostpic.net/2019/01/06/195dfd0705356c532ec2c39bc6abbee2.jpg Скачать фильм Несколько шагов до любви через торрент бесплантно в хорошем качестве Описание: Лариса (Елена Захарова) – хозяйка сети магазинов одежды, готовится к свадьбе с успешным бизнесменом Михаилом (Руслан Чернецкий). ... 10 10 2
Торрент: Зарегистрирован [2019-01-08 08:28] · скачан: 9 раз
Статус: √ проверено
Размер: 10.08 GB
Как cкачать? Как скачать Несколько шагов до любви через торрент | qTorrent

% Раздел Тема Автор DL S | L
Наши сериалы [ 5.52 GB ] Несколько шагов до любви / Серии: 1-2 из 2 [2019 Мело HDTVRip 720p] bober100 Скачать
1 | 0
Наши сериалы [ 1.46 GB ] Несколько шагов до любви / Серии: 1-2 из 2 [2019 Мело HDTVRip] bober100 Скачать
1 | 0

28-11-2019 20:33  

Отключить всю рекламу на сайте

    Дорогой пользователь! Огромная просьба, поблагодарите релизера, оцените раздачу и оставьте свои комментарий, если Вы скачали Несколько шагов до любви через торрент бесплатно! Внесите свою лепту в развитие PiratBit!
    Комментировать посты могут только пользователи прошедшие не сложную регистрацию
    Показать сообщения:    

    Несколько шагов до любви через торрент
    Скачать бесплатно Несколько шагов до любви
    Несколько шагов до любви скачать торрент
    Несколько шагов до любви смотреть онлайн
    Cкачать фильм Несколько шагов до любви бесплатно
    Несколько шагов до любви скачать торрент в хорошем качестве
    Несколько шагов до любви смотреть онлайн бесплатно в хорошем качестве


    Вы не можете начинать темы
    Вы не можете отвечать на сообщения
    Вы не можете редактировать свои сообщения
    Вы не можете удалять свои сообщения
    Вы не можете голосовать в опросах
    Вы не можете прикреплять файлы к сообщениям
    Вы можете скачивать файлы