новый адрес
Мега распродажа FORZA HORIZON 4 ULTIMATE+ВСЕ DLC+ОНЛАЙН всего за 499р. 349 руб. (супер цена). Внимание количество ограничено!!!

iTunes

1+1

iTunes

мы

iTunes

1

iTunes

Чернобыль

iTunes

Ральф против интернета

Лицензия

ПШазам

Лицензия

Игра престолов

Лицензия

30
pack

ВАЖНО

!!Акция!!

Alien_RageХит недели

RePack

Resident Evil 21

ИГРА 18+

pack

RePack

Metro:Exodus

!!Акция!!

Alien_Rage

RePack

fifa19

RePack

Assassins Creed: Odyssey

RePack

NEED FOR SPEED™ PAYBACK

3 сезон

9 сезон

Бесстыжие 9 сезон

Все сериалы

все сериалы на PB.wtf

RePack

FAR CRY 5
Ребята, катастрофически не хватает 1900р. для оплаты серверов за Октябрь (всвязи с блокировками трафик упал в 3 раза), 1-2р., выручайте.
  

Исповедь (Всеволод Воронин) [1962, СССР, драма, SATRip от AVP Studio] pb.wtf

Исповедь через торрент pb.wtf

Размер: 1.09 GB | Добавлен: 10 мес. назад | Торрент скачан:7 раз
Скачать  

08-01-2019 09:22 Исповедь Скачать торрент  

Исповедь
Страна: СССР
Производство: Одесская киностудия

Жанр: драма
Год выпуска: 1962
Продолжительность: 01:30:07

Перевод: Не требуется
Cубтитры: нет
Оригинальная аудиодорожка: русский

Режиссер: Всеволод Воронин

В ролях:
Нина Магер, Иван Бортник, Юрий Пузырёв, Варвара Маслюченко, Андрей Абрикосов, Евгений Тетерин, Владимир Антонов...
Об актёрах подробней

Описание:
Талантливый художник поступил в духовную семинарию, но разочаровавшись в служителях культа, нашел в себе силы оставить Церковь.

Исходник: DVB
Качество видео: SATRip
Формат видео: AVI

Видео: 672x496 (4:3), 25,000 кадров/сек, XviD ~ 1530 kbps avg, 0.184 bit/pixel
Аудио: 48 kHz, Dolby Digital AC3 2.0, 192 kbps

Раздача от:
Общее
Полное имя : Ispoved.1962.SATRip_[New-team]_by_AVP_Studio.avi
Формат : AVI
Формат/Информация : Audio Video Interleave
Размер файла : 1,09 Гбайт
Продолжительность : 1 ч. 30 м.
Общий поток : 1731 Кбит/сек
Программа кодирования : VirtualDubMod 1.5.10.3 | www.virtualdub-fr.org || (build 2550/release)
Библиотека кодирования : VirtualDubMod build 2550/release

Видео
Идентификатор : 0
Формат : MPEG-4 Visual
Профиль формата : Advanced Simple@L5
Настройки формата : BVOP1 / Custom Matrix
Параметр BVOP формата : 1
Параметр QPel формата : Нет
Параметр GMC формата : Без точки перехода
Параметр матрицы формата : Выборочная
Идентификатор кодека : XVID
Идентификатор кодека/Подсказка : XviD
Продолжительность : 1 ч. 30 м.
Битрейт : 1530 Кбит/сек
Ширина : 672 пикселя
Высота : 496 пикселей
Соотношение сторон : 4:3
Частота кадров : 25,000 кадров/сек
Цветовое пространство : YUV
Субдискретизация насыщенности : 4:2:0
Битовая глубина : 8 бит
Тип развёртки : Прогрессивная
Метод сжатия : С потерями
Бит/(Пиксели*Кадры) : 0.184
Размер потока : 986 Мбайт (88%)
Библиотека кодирования : XviD 73

Аудио
Идентификатор : 1
Формат : AC-3
Формат/Информация : Audio Coding 3
Коммерческое название : Dolby Digital
Идентификатор кодека : 2000
Продолжительность : 1 ч. 30 м.
Вид битрейта : Постоянный
Битрейт : 192 Кбит/сек
Каналы : 2 канала
Channel layout : L R
Частота : 48,0 КГц
Частота кадров : 31,250 кадров/сек (1536 SPF)
Битовая глубина : 16 бит
Метод сжатия : С потерями
Размер потока : 124 Мбайт (11%)
Выравнивание : Разделение по промежуткам
Продолжительность промежутка : 40 мс. (1,00 видеокадр)
Время предзагрузки промежутка : 500 мс
pb.wtf



Скачать Исповедь через торрент http://picplus.ru/img/1901/08/573bf4ed.png Скачать фильм Исповедь через торрент бесплантно в хорошем качестве Описание:Талантливый художник поступил в духовную семинарию, но разочаровавшись в служителях культа, нашел в себе силы оставить Церковь. ... 10 10 1
Info! Золотая раздача, скачанное не засчитывается.
Торрент: Зарегистрирован [2019-01-08 09:22] · скачан: 7 раз
Статус: √ проверено
Размер: 1.09 GB
Как cкачать? Как скачать Исповедь через торрент | qTorrent

% Раздел Тема Автор DL S | L
Зарубежные сериалы [ 3.83 GB ] Исповедь / A Confession / Сезон: 1 / Серии: 1-6 из 6 [2019 биография WEB-DLRip] [MVO] killermax2013 Скачать
1 | 0
Зарубежные сериалы [ 6.9 GB ] Исповедь / A Confession / Сезон: 1 / Серии: 1-6 из 6 [2019 биография WEB-DL 720p] [MVO] killermax2013 Скачать
1 | 0
Зарубежные сериалы [ 15.01 GB ] Исповедь / A Confession / Сезон: 1 / Серии: 1-6 из 6 [2019 биография WEB-DL 1080p] [MVO] killermax2013 Скачать
1 | 0
Фильмы с авторской озвучкой [ 1.46 GB ] Исповедь невидимки / Memoirs of an Invisible Man [1992 BDRip] AVO killermax2013 Скачать
1 | 0
Кино СССР [ 1.09 GB ] Исповедь [1962 СССР SATRip-AVC от AVP Studio] AVP Studio Скачать
2 | 0
Фильмы [HD 720p, 1080p] (Хороший звук DUB, MVO) [ 13.07 GB ] Исповедь невидимки / Memoirs of an Invisible Man [1992 BDRip 1080p by msltel] DUB 4 x MVO 3 x DVO 4 x AVO msltel Скачать
1 | 0
Фильмы [HD 720p, 1080p] (Хороший звук DUB, MVO) [ 4.97 GB ] Исповедь невидимки / Memoirs of an Invisible Man [1992 BDRip 720p by msltel] DUB 4 x MVO 3 x DVO 4 x AVO msltel Скачать
1 | 0


>> Регистрируемся здесь <<






Отзывы и комментарии о схеме читаем и пишем здесь: ---> Отзывы и комментарии о схеме

Новые благодарочки в телеграм довольных пользователей:
скриншот   скриншот   скриншот   скриншот   скриншот
    Дорогой пользователь! Огромная просьба, поблагодарите релизера, оцените раздачу и оставьте свои комментарий, если Вы скачали Исповедь через торрент бесплатно! Внесите свою лепту в развитие PiratBit!
    Комментировать посты могут только пользователи прошедшие не сложную регистрацию
    Показать сообщения:    

    Исповедь через торрент
    Скачать бесплатно Исповедь
    Исповедь скачать торрент
    Исповедь смотреть онлайн
    Cкачать фильм Исповедь бесплатно
    Исповедь скачать торрент в хорошем качестве
    Исповедь смотреть онлайн бесплатно в хорошем качестве


    Вы не можете начинать темы
    Вы не можете отвечать на сообщения
    Вы не можете редактировать свои сообщения
    Вы не можете удалять свои сообщения
    Вы не можете голосовать в опросах
    Вы не можете прикреплять файлы к сообщениям
    Вы можете скачивать файлы