Ссылка на приватное зеркало нашего сайта всего за 1$. Внимание количество ограничено!!!

2 сезон

iTunes

1 сезон

1

2 сезон

2 сезон

iTunes

1 сезон

RePack

30

Новинка

ВАЖНО

ИГРА 18+

pack

RePack

MK11
pack

Забери бонус

RePack

jed

!!Акция!!

Alien_Rage

RePack

fifa19

RePack

Assassins Creed: Odyssey

RePack

NEED FOR SPEED™ PAYBACK

4 сезон

9 сезон

Бесстыжие 9 сезон

Все сериалы

все сериалы на PB.wtf

RePack

FAR CRY 5
  

Коронер / Coroner / Сезон: 2 / Серии 1-8 из 8 (Эдриэнн Митчелл, Пол Фокс) [2020, драма, детектив, WEB-DLRip] [MVO] (Octopus) pb.wtf

Коронер через торрент pb.wtf

Размер: 4.89 GB | Добавлен: 9 мес. назад | Торрент скачан:25 раз
Скачать  

08-01-2019 13:15 Коронер Скачать торрент  

Коронер / Coroner
Информация о сериале

Год выпуска: 2020
Жанр: драма, детектив
Страна: Канада
Продолжительность: 1 x ~ 00:45:00
Перевод: Любительский (многоголосый закадровый) Octopus

Режиссер: Эдриэнн Митчелл, Пол Фокс

В ролях: Эрен Кассам, Алли Чунг, Саад Сиддикуи, Грэм Йокич, Серинда Свон, Роджер Р. Кросс, Ловелл Адамс-Грэй, Грэйс Линн Кунг, Шерилин Аллен

О фильме: Грядущая драматическая история с детективными элементами от канадских авторов обещает стать новым хитом две тысячи девятнадцатого года. Разработчики проекта Морвин Бребнер и компания Мюс Энтертеймент обещают захватывающую историю, связанную с расследованием запутанного дела, которое может так и не оказаться раскрытым. В Торонто происходят загадочные убийства. Неизвестный маньяк совершает их, ведя хитроумную игру с представителями власти. Новый коронер решается бросить вызов хитроумному преступнику. В центре внимания сюжета оказывается не только расследование, но и острое психологическое противостояние персонажей.

rating
скриншот  

Файл

Качество: WEB-DLRip
Формат: AVI
Видео: XviD, ~ 1500 Кбит/с, 720x400
Звук: Русский / AC3 / 2 Ch / 384 kbs
скриншот  скриншот  скриншот  
General
Complete name : E:\Coroner.s02.400p.Octopus\Coroner.s02e01.400p.Octopus.avi
Format : AVI
Format/Info : Audio Video Interleave
File size : 627 MiB
Duration : 45mn 17s
Overall bit rate : 1 937 Kbps
Writing application : VirtualDubMod 1.5.10.3 | www.virtualdub-fr.org || (build 2550/release)
Writing library : VirtualDubMod build 2550/release

Video
ID : 0
Format : MPEG-4 Visual
Format profile : Advanced Simple@L5
Format settings, BVOP : 2
Format settings, QPel : No
Format settings, GMC : No warppoints
Format settings, Matrix : Custom
Codec ID : XVID
Codec ID/Hint : XviD
Duration : 45mn 17s
Bit rate : 1 467 Kbps
Width : 720 pixels
Height : 400 pixels
Display aspect ratio : 16:9
Frame rate : 23.976 fps
Color space : YUV
Chroma subsampling : 4:2:0
Bit depth : 8 bits
Scan type : Progressive
Compression mode : Lossy
Bits/(Pixel*Frame) : 0.212
Stream size : 475 MiB (76%)
Writing library : XviD 1.2.1 (UTC 2008-12-04)

Audio
ID : 1
Format : AC-3
Format/Info : Audio Coding 3
Mode extension : CM (complete main)
Format settings, Endianness : Big
Codec ID : 2000
Duration : 45mn 17s
Bit rate mode : Constant
Bit rate : 384 Kbps
Channel(s) : 2 channels
Channel positions : Front: L R
Sampling rate : 48.0 KHz
Compression mode : Lossy
Stream size : 124 MiB (20%)
Alignment : Split accross interleaves

Внимание! Раздача ведётся путём добавления новых серий; при каждом добавлении создаётся новый торрент. Чтобы начать докачку новой серии, пользователям необходимо сделать следующее:
(1) остановить скачивание,
(2) удалить старый торрент у себя из клиента (старые серии удалять не надо),
(3) скачать новый торрент и запустить его у себя в клиенте вместо старого, при этом указать клиенту путь в старую папку куда и должно происходить скачивание новых серий.
Ваш клиент при этом должен произвести хеширование (проверку) старой папки (если не производит сам - помогите ему сделать это), и будет докачивать только те серии которых у вас ещё нет. Старые серии при этом не удаляются, а продолжают раздаваться!
Eсли вы уже удалили старые серии, то предотвратить повторную закачку старых серий можно, отжав галочку в соответствующих местах при запуске нового торрента. По возможности, желательно не удалять старые серии как можно дольше чтобы релизёр не столько продолжал раздавать старые серии, а смог сконцентрироваться на новых.
pb.wtf



Скачать Коронер через торрент https://i108.fastpic.ru/big/2019/0108/7b/4d258dfdb574614b391a28a3e735a27b.jpg Скачать фильм Коронер через торрент бесплантно в хорошем качестве О фильме: Грядущая драматическая история с детективными элементами от канадских авторов обещает стать новым хитом две тысячи девятнадцатого ... 9.7 10 3
Торрент: Зарегистрирован [2020-02-25 13:16] · скачан: 25 раз
Статус: T временная
Размер: 4.89 GB
Как cкачать? Как скачать Коронер через торрент | qTorrent



Последний раз редактировалось: killermax2013 (2020-01-07 17:57), всего редактировалось 5 раз(а)

28-11-2019 20:33  

Отключить всю рекламу на сайте

    Дорогой пользователь! Огромная просьба, поблагодарите релизера, оцените раздачу и оставьте свои комментарий, если Вы скачали Коронер через торрент бесплатно! Внесите свою лепту в развитие PiratBit!
    Комментировать посты могут только пользователи прошедшие не сложную регистрацию
    Показать сообщения:    

    Коронер через торрент
    Скачать бесплатно Коронер
    Коронер скачать торрент
    Коронер смотреть онлайн
    Cкачать фильм Коронер бесплатно
    Коронер скачать торрент в хорошем качестве
    Коронер смотреть онлайн бесплатно в хорошем качестве


    Вы не можете начинать темы
    Вы не можете отвечать на сообщения
    Вы не можете редактировать свои сообщения
    Вы не можете удалять свои сообщения
    Вы не можете голосовать в опросах
    Вы не можете прикреплять файлы к сообщениям
    Вы можете скачивать файлы