новый адрес
Мега распродажа FORZA HORIZON 4 ULTIMATE+ВСЕ DLC+ОНЛАЙН всего за 499р. 349 руб. (супер цена). Внимание количество ограничено!!!

iTunes

1+1

iTunes

мы

iTunes

1

iTunes

Чернобыль

iTunes

Ральф против интернета

Лицензия

ПШазам

Лицензия

Игра престолов

Лицензия

30
pack

ВАЖНО

!!Акция!!

Alien_RageХит недели

RePack

Resident Evil 21

ИГРА 18+

pack

RePack

Metro:Exodus

!!Акция!!

Alien_Rage

RePack

fifa19

RePack

Assassins Creed: Odyssey

RePack

NEED FOR SPEED™ PAYBACK

3 сезон

9 сезон

Бесстыжие 9 сезон

Все сериалы

все сериалы на PB.wtf

RePack

FAR CRY 5
Ребята, катастрофически не хватает 1900р. для оплаты серверов за Октябрь (всвязи с блокировками трафик упал в 3 раза), 1-2р., выручайте.
  

Свидетели (Константин Фам) [2018, Драма, история, WEB-DLRip-AVC] - ExKinoRay pb.wtf

Свидетели через торрент pb.wtf

Раздают: 3 [ 0 KB/s ]
Размер: 1.83 GB | Добавлен: 10 мес. назад | Торрент скачан:319 раз
Скачать  

08-01-2019 23:39 Свидетели Скачать торрент  

Информация о фильме
Название: Свидетели
Год выхода: 2018
Жанр: Драма, история
Режиссер: Константин Фам
В ролях: Оксана Фандера, Филипп Янковский, Владимир Кошевой, Ленн Кудрявицки, Михаил Горевой, Маруся Зыкова, Анжелика Каширина, Вячеслав Чепурченко, Мария Кинг, Сергей Агафонов

Описание:
В начале XX века в мастерской создается уникальная скрипка, предназначенная в подарок еврейскому мальчику. Инструмент попадает в эпицентр трагических событий, становясь их невольным свидетелем. Главный герой фильма до середины жизни был полностью уверен, что знает всё о своей семье, пока не получил полное драматизма и эмоций письмо из прошлого. Тот, кто был таким близким и родным, оказывается совсем другим человеком… Как теперь жить с этой болью? Как найти себя, и вернуться к истокам? Герою предстоит отыскать ответы на эти вопросы и обрести Любовь.



Страна: Россия, Беларусь, Чехия, Франция, Польша, Израиль
Выпущено: Ark Pictures, Russian Film Group
Продолжительность: 01:47:26
Перевод: Не требуется

БЕЗ КАКОЙ-ЛИБО РЕКЛАМЫ!

Формат: MKV
Качество: WEB-DLRip-AVC
Видео: 1024x430 (2.40:1), 24.000 fps, MPEG-4 AVC 2052 kbps avg, 0.194 bit/pixel
Аудио: AC3, 5/1 ch, 384 Кбит/сек, CBR, 48,0 КГц
General
Unique ID : 196202584430635172060068219645913244394 (0x939B3E45C53BEEA7988204B6EB4CA2EA)
Complete name : D:\Witness.2018.WEB-DLRip.AVC.ExKinoRay.mkv
Format : Matroska
Format version : Version 2
File size : 1.83 GiB
Duration : 1 h 47 min
Overall bit rate : 2 436 kb/s
Movie name : Свидетели 2018 from ExKinoRay
Encoded date : UTC 2019-01-08 22:34:21
Writing application : mkvmerge v5.6.0 ('Kenya Kane') built on May 27 2012 16:44:04
Writing library : libebml v1.2.3 + libmatroska v1.3.0

Video
ID : 1
Format : AVC
Format/Info : Advanced Video Codec
Format profile : High@L4.1
Format settings, CABAC : Yes
Format settings, ReFrames : 12 frames
Codec ID : V_MPEG4/ISO/AVC
Duration : 1 h 47 min
Bit rate : 2 052 kb/s
Width : 1 024 pixels
Height : 430 pixels
Display aspect ratio : 2.40:1
Frame rate mode : Constant
Frame rate : 24.000 FPS
Color space : YUV
Chroma subsampling : 4:2:0
Bit depth : 8 bits
Scan type : Progressive
Bits/(Pixel*Frame) : 0.194
Stream size : 1.50 GiB (82%)
Title : Enigma
Writing library : x264 core 152 r2851 ba24899
Encoding settings : cabac=1 / ref=12 / deblock=1:-2:-2 / analyse=0x3:0x113 / me=umh / subme=10 / psy=1 / psy_rd=1.05:0.10 / mixed_ref=1 / me_range=32 / chroma_me=1 / trellis=2 / 8x8dct=1 / cqm=0 / deadzone=21,11 / fast_pskip=0 / chroma_qp_offset=-3 / threads=12 / lookahead_threads=2 / sliced_threads=0 / nr=0 / decimate=0 / interlaced=0 / bluray_compat=0 / constrained_intra=0 / bframes=9 / b_pyramid=2 / b_adapt=2 / b_bias=0 / direct=3 / weightb=1 / open_gop=0 / weightp=2 / keyint=240 / keyint_min=24 / scenecut=40 / intra_refresh=0 / rc=2pass / mbtree=0 / bitrate=2052 / ratetol=1.0 / qcomp=0.60 / qpmin=0 / qpmax=51 / qpstep=4 / cplxblur=20.0 / qblur=0.5 / ip_ratio=1.40 / pb_ratio=1.30 / aq=1:1.00
Language : English
Default : Yes
Forced : No
Color range : Limited
Color primaries : BT.709
Transfer characteristics : BT.709
Matrix coefficients : BT.709

Audio
ID : 2
Format : AC-3
Format/Info : Audio Coding 3
Mode extension : CM (complete main)
Format settings, Endianness : Big
Codec ID : A_AC3
Duration : 1 h 47 min
Bit rate mode : Constant
Bit rate : 384 kb/s
Channel(s) : 6 channels
Channel positions : Front: L C R, Side: L R, LFE
Sampling rate : 48.0 kHz
Frame rate : 31.250 FPS (1536 spf)
Compression mode : Lossy
Stream size : 295 MiB (16%)
Language : Russian
Default : Yes
Forced : No
Релиз от:

Автор релиза: pb.wtf



Скачать Свидетели через торрент https://i4.imageban.ru/out/2019/01/07/f7283fa5dc350d9e873df2640e442b68.png Скачать фильм Свидетели через торрент бесплантно в хорошем качестве Описание: В начале XX века в мастерской создается уникальная скрипка, предназначенная в подарок еврейскому мальчику. Инструмент попадает в ... 10 10 7
Info! Золотая раздача, скачанное не засчитывается.
Торрент: Зарегистрирован [2019-01-08 23:39] · скачан: 319 раз
Статус: √ проверено
Размер: 1.83 GB
Как cкачать? Как скачать Свидетели через торрент | qTorrent

% Раздел Тема Автор DL S | L
Фильмы [HD 720p, 1080p] (Хороший звук DUB, MVO) [ 3.42 GB ] Последний свидетель / The Last Witness [2018 история BDRip 720p] MVO [Jaskier HDrezka Studio] - ExKinoRay Enigma2010 Скачать
1 | 0
Фильмы 2018 [DVDrip, WEB-DLRip, HDrip] (DUB, MVO) [ 1.6 GB ] Последний свидетель / The Last Witness [2018 история BDRip-AVC] MVO [Jaskier] - ExKinoRay Enigma2010 Скачать
3 | 0


>> Регистрируемся здесь <<






Отзывы и комментарии о схеме читаем и пишем здесь: ---> Отзывы и комментарии о схеме

Новые благодарочки в телеграм довольных пользователей:
скриншот   скриншот   скриншот   скриншот   скриншот
    Дорогой пользователь! Огромная просьба, поблагодарите релизера, оцените раздачу и оставьте свои комментарий, если Вы скачали Свидетели через торрент бесплатно! Внесите свою лепту в развитие PiratBit!
    Комментировать посты могут только пользователи прошедшие не сложную регистрацию
    Показать сообщения:    

    Свидетели через торрент
    Скачать бесплатно Свидетели
    Свидетели скачать торрент
    Свидетели смотреть онлайн
    Cкачать фильм Свидетели бесплатно
    Свидетели скачать торрент в хорошем качестве
    Свидетели смотреть онлайн бесплатно в хорошем качестве


    Вы не можете начинать темы
    Вы не можете отвечать на сообщения
    Вы не можете редактировать свои сообщения
    Вы не можете удалять свои сообщения
    Вы не можете голосовать в опросах
    Вы не можете прикреплять файлы к сообщениям
    Вы можете скачивать файлы