Ссылка на приватное зеркало нашего сайта всего за 1$. Внимание количество ограничено!!!

2 сезон

iTunes

1 сезон

1

iTunes

iTunes

iTunes

1 сезон

RePack

30

ИГРА 18+

pack

ВАЖНО

!!Акция!!

Alien_RageХит недели

RePack

MK11
pack

Забери бонус

RePack

jed

!!Акция!!

Alien_Rage

RePack

fifa19

RePack

Assassins Creed: Odyssey

RePack

NEED FOR SPEED™ PAYBACK

4 сезон

9 сезон

Бесстыжие 9 сезон

Все сериалы

все сериалы на PB.wtf

RePack

FAR CRY 5
  

Спасайся, брат! / Серии: 1-4 из 4 (Антон Сиверс) [2015, Боевик, драма, HDTV 1080i] pb.wtf

Спасайся, брат! через торрент pb.wtf

Размер: 11.56 GB | Добавлен: 1 год 9 мес. назад | Торрент скачан:31 раз
Скачать  

09-01-2019 05:27 Спасайся, брат! Скачать торрент  

Спасайся, брат!Год выпуска: 2015
Страна: Россия
Жанр: Боевик, драма
Продолжительность: ~ 00:44:00
Перевод: Не требуется
Субтитры: отсутствуют

Режиссер: Антон Сиверс



В ролях:

Александр Лыков, Алексей Шевченков, Марина Доможирова, Роман Павлушев, Андрей Кузнецов, Анна Дюкова, Кирилл Балобан, Александр Рязанцев, Валерий Немешаев

Описание:

Из колонии, расположенной неподалеку от монастыря, бежит зек Егор Сурин. Он хочет отомстить бывшему другу, который предал его, дав против Егора показания в суде. Жена не дождалась Егора из колонии. И ей он тоже собирается мстить. Егор, спасаясь от погони, выходит к скиту, где молится отец Арсений. Ветеран афганской войны, он уже много лет живет в монастыре. Причину, по которой он ушел от мира, отец Арсений тщательно скрывает. Но история, которая произошла с ним на войне, до сих пор не дает ему покоя. Постоянное чувство вины не оставляет отца Арсения. И однажды ему выпадает шанс исправить ошибку прошлого… Егор Сурин рассказывает монаху свою историю. И не скрывает, что им движет исключительно жажда мести. Отговорить Егора у отца Арсения не получается. Поэтому он решает идти вместе с ним в город. Возможно, по дороге монаху все-таки удастся вразумить Егора. Но на беглого зека и странствующего монаха объявлена охота. Начальник оперативной части колонии отдает приказ своим сотрудникам – живым Егора не брать. Теперь отец Арсений и Егор вынуждены бороться за свои жизни…

Качество: HDTV 1080i
Формат: TS

Видео: 1920х1080 (16:9), 25 fps, AVC MPEG-4 (x264), High@L4.0 ~ 10,0 Мbps avg, 0.184 bit/pixel
Аудио: 48 kHz, MP2, 2 ch, 256 kbps avg
скриншот   скриншот   скриншот   скриншот  

Общее
Идентификатор : 1 (0x1)
Полное имя : F:\Фильмы торренты\Spasaysja.Brat.2015.HDTV.(1080i).MediaClub\Spasaysja.Brat.(01.seriya.iz.04).2015.HDTV.(1080i).MediaClub.ts
Формат : MPEG-TS
Размер файла : 3,11 Гбайт
Продолжительность : 43 м.
Режим общего битрейта : Переменный
Общий поток : 10,3 Мбит/сек

Видео
Идентификатор : 2202 (0x89A)
Идентификатор меню : 2201 (0x899)
Формат : AVC
Формат/Информация : Advanced Video Codec
Профиль формата : High@L4.0
Параметр CABAC формата : Да
Параметр ReFrames формата : 4 кадра
Идентификатор кодека : 27
Продолжительность : 43 м.
Битрейт : 9557 Кбит/сек
Ширина : 1920 пикселей
Высота : 1080 пикселей
Соотношение сторон : 16:9
Частота кадров : 25,000 кадров/сек
Стандарт вещания : Component
Цветовое пространство : YUV
Субдискретизация насыщенности : 4:2:0
Битовая глубина : 8 бит
Тип развёртки : Чересстрочная
Порядок развёртки : Верхнее поле первое
Бит/(Пиксели*Кадры) : 0.184
Размер потока : 2,87 Гбайт (93%)
Основные цвета : BT.709
Характеристики трансфера : BT.709
Коэффициенты матрицы : BT.709

Аудио
Идентификатор : 2203 (0x89B)
Идентификатор меню : 2201 (0x899)
Формат : MPEG Audio
Версия формата : Version 1
Профиль формата : Layer 2
Идентификатор кодека : 3
Продолжительность : 43 м.
Вид битрейта : Постоянный
Битрейт : 256 Кбит/сек
Каналы : 2 канала
Частота : 48,0 КГц
Метод сжатия : С потерями
Размер потока : 78,8 Мбайт (2%)
Язык : Russian

pb.wtf



Скачать Спасайся, брат! через торрент http://i57.fastpic.ru/big/2015/0411/84/92eda6ddc171eca858f7ff04a2836984.jpg Скачать фильм Спасайся, брат! через торрент бесплантно в хорошем качестве Описание: Из колонии, расположенной неподалеку от монастыря, бежит зек Егор Сурин. Он хочет отомстить бывшему другу, который предал его, ... 10 10 3
Торрент: Зарегистрирован [2019-01-09 05:27] · скачан: 31 раз
Статус: √ проверено
Размер: 11.56 GB
Как cкачать? Как скачать Спасайся, брат! через торрент | qTorrent

% Раздел Тема Автор DL S | L
Наши сериалы [ 7.63 GB ] Спасайся брат! / Серии: 1-4 из 4 [2015 WEB-DL 1080p] bober100 Скачать
1 | 0
Наши сериалы [ 1.95 GB ] Спасайся брат! / Серии: 1-4 из 4 [2015 SATRip] lug30 Скачать
1 | 0

28-11-2019 20:33  

Отключить всю рекламу на сайте

    Дорогой пользователь! Огромная просьба, поблагодарите релизера, оцените раздачу и оставьте свои комментарий, если Вы скачали Спасайся, брат! через торрент бесплатно! Внесите свою лепту в развитие PiratBit!
    Комментировать посты могут только пользователи прошедшие не сложную регистрацию
    Показать сообщения:    

    Спасайся, брат! через торрент
    Скачать бесплатно Спасайся, брат!
    Спасайся, брат! скачать торрент
    Спасайся, брат! смотреть онлайн
    Cкачать фильм Спасайся, брат! бесплатно
    Спасайся, брат! скачать торрент в хорошем качестве
    Спасайся, брат! смотреть онлайн бесплатно в хорошем качестве


    Вы не можете начинать темы
    Вы не можете отвечать на сообщения
    Вы не можете редактировать свои сообщения
    Вы не можете удалять свои сообщения
    Вы не можете голосовать в опросах
    Вы не можете прикреплять файлы к сообщениям
    Вы можете скачивать файлы