Ссылка на приватное зеркало всего за 1$. Внимание количество ограничено!!!

OK

1+1

iTunes

мы

OK

1

WEB-DLRip

Джокер

Пифагор

Ведьмак / The Witcher сериал

iTunes

ПШазам

ОК

Оно 2

iTunes

30
pack

Вам бонус

ВАЖНО

!!Акция!!

Alien_RageХит недели

RePack

Resident Evil 21

ИГРА 18+

pack

RePack

jed

RePack

fifa19

RePack

Assassins Creed: Odyssey

RePack

NEED FOR SPEED™ PAYBACK

4 сезон

9 сезон

Бесстыжие 9 сезон

Все сериалы

все сериалы на PB.wtf

RePack

FAR CRY 5
  

Последний мальчик / The Last Boy (Перри Бандал) [2019, Фантастика, драма, WEB-DL 720p] MVO [@MUZOBOZ@] pb.wtf

Последний мальчик через торрент pb.wtf

Размер: 3.3 GB | Добавлен: 1 год назад | Торрент скачан:60 раз
Скачать  

09-01-2019 05:51 Последний мальчик Скачать торрент  

Последний мальчик / The Last BoyГод выпуска: 2019
Страна: Великобритания
Жанр: Фантастика, драма
Продолжительность: 01:29:51
Перевод: Любительский (многоголосый) | @MUZOBOZ@
Субтитры: отсутствуют

Режиссер: Перри Бандал

rating

В ролях:

Люк Госс, Анна Уилсон-Джонс, Питер Гиннесс, Флинн Аллен, Анета Петровска, Матильда Фриман, Лоури Уолтон, Дженнифер Скотт, Джемма Берджесс

Описание:

Мир на пороге конца света. Умирающая мать посылает своего маленького сына в путешествие к месту, где исполняются желания.

Качество: WEB-DL 720p
Формат: MKV

Видео: h.264, 4 867 kb/s, 1280x720
Аудио: Русский, (AC3, 2 ch, 384 Кбит/с)
скриншот  скриншот  скриншот  

Общее
Уникальный идентификатор : 255083930846952564823921051495516182081 (0xBFE760C986305FC3AA648E120D119641)
Полное имя : E:\торреннты\The.Last.Boy.2019.P.WEB-DL.72Op_KOSHARA.mkv
Формат : Matroska
Версия формата : Version 2
Размер файла : 3,30 Гбайт
Продолжительность : 1 ч. 29 м.
Режим общего битрейта : Переменный
Общий поток : 5253 Кбит/сек
Дата кодирования : UTC 2019-01-08 20:27:34
Программа кодирования : mkvmerge v8.3.0 ('Over the Horizon') 64bit
Библиотека кодирования : libebml v1.3.1 + libmatroska v1.4.2

Видео
Идентификатор : 1
Формат : AVC
Формат/Информация : Advanced Video Codec
Профиль формата : High@L4.1
Настройки формата : CABAC / 4 Ref Frames
Параметр CABAC формата : Да
Параметр RefFrames формата : 4 кадра
Идентификатор кодека : V_MPEG4/ISO/AVC
Продолжительность : 1 ч. 29 м.
Вид битрейта : Переменный
Битрейт : 4867 Кбит/сек
Максимальный битрейт : 5500 Кбит/сек
Ширина : 1280 пикселей
Высота : 720 пикселей
Соотношение сторон : 16:9
Режим частоты кадров : Постоянный
Частота кадров : 23,976 (24000/1001) кадра/сек
Стандарт вещания : Component
Цветовое пространство : YUV
Субдискретизация насыщенности : 4:2:0
Битовая глубина : 8 бит
Тип развёртки : Прогрессивная
Бит/(Пиксели*Кадры) : 0.216
Размер потока : 2,99 Гбайт (91%)
Default : Да
Forced : Нет
Цветовой диапазон : Limited
Основные цвета : BT.709
Характеристики трансфера : BT.709
Коэффициенты матрицы : BT.709

Аудио
Идентификатор : 2
Формат : AC-3
Формат/Информация : Audio Coding 3
Идентификатор кодека : A_AC3
Продолжительность : 1 ч. 29 м.
Вид битрейта : Постоянный
Битрейт : 384 Кбит/сек
Каналы : 2 канала
Расположение каналов : Front: L R
Частота : 48,0 КГц
Частота кадров : 31,250 кадров/сек (1536 SPF)
Битовая глубина : 16 бит
Метод сжатия : С потерями
Размер потока : 247 Мбайт (7%)
ServiceKind/String : Complete Main
Default : Да
Forced : Нет

pb.wtf



Скачать Последний мальчик через торрент https://b.radikal.ru/b15/1901/b8/69f608855418.jpg Скачать фильм Последний мальчик через торрент бесплантно в хорошем качестве Описание: Мир на пороге конца света. Умирающая мать посылает своего маленького сына в путешествие к месту, где исполняются ... 7 10 3
Торрент: Зарегистрирован [2019-01-09 05:51] · скачан: 60 раз
Статус: T временная
Размер: 3.3 GB
Как cкачать? Как скачать Последний мальчик через торрент | qTorrent

% Раздел Тема Автор DL S | L
T Фильмы (мультфильмы) cо спонсором показа (Новинки AVI/MKV) [ 1.37 GB ] Последний мальчик / The Last Boy [2019 WEB-DLRip] MVO [@MUZOBOZ@] bober100 Скачать
1 | 0
T Фильмы (мультфильмы) cо спонсором показа (Новинки AVI/MKV) [ 3.78 GB ] Последний мальчик / The Last Boy [2019 WEB-DL 1080p] MVO [@MUZOBOZ@] bober100 Скачать
4 | 0

28-11-2019 20:33  

Отключить всю рекламу на сайте

    Дорогой пользователь! Огромная просьба, поблагодарите релизера, оцените раздачу и оставьте свои комментарий, если Вы скачали Последний мальчик через торрент бесплатно! Внесите свою лепту в развитие PiratBit!
    Комментировать посты могут только пользователи прошедшие не сложную регистрацию
    Показать сообщения:    

    Последний мальчик через торрент
    Скачать бесплатно Последний мальчик
    Последний мальчик скачать торрент
    Последний мальчик смотреть онлайн
    Cкачать фильм Последний мальчик бесплатно
    Последний мальчик скачать торрент в хорошем качестве
    Последний мальчик смотреть онлайн бесплатно в хорошем качестве


    Вы не можете начинать темы
    Вы не можете отвечать на сообщения
    Вы не можете редактировать свои сообщения
    Вы не можете удалять свои сообщения
    Вы не можете голосовать в опросах
    Вы не можете прикреплять файлы к сообщениям
    Вы можете скачивать файлы