Ссылка на приватное зеркало нашего сайта всего за 1$. Внимание количество ограничено!!!

2 сезон

iTunes

1 сезон

1

2 сезон

2 сезон

iTunes

1 сезон

RePack

30

Новинка

ВАЖНО

ИГРА 18+

pack

RePack

MK11
pack

Забери бонус

RePack

jed

!!Акция!!

Alien_Rage

RePack

fifa19

RePack

Assassins Creed: Odyssey

RePack

NEED FOR SPEED™ PAYBACK

4 сезон

9 сезон

Бесстыжие 9 сезон

Все сериалы

все сериалы на PB.wtf

RePack

FAR CRY 5
  

Люк Кейдж / Luke Cage / Сезон: 2 / Серии: 1-13 из 13 (Энди Годдард, Марк Йобст, Кларк Джонсон) [2018, Фантастика, боевик, триллер, драма, криминал, WEB-DLRip] MVO [NewStudio] pb.wtf

Люк Кейдж через торрент pb.wtf

Размер: 9.42 GB | Добавлен: 1 год 10 мес. назад | Торрент скачан:33 раза
Скачать  

09-01-2019 08:22 Люк Кейдж Скачать торрент  

Люк Кейдж | Luke Cage Год выпуска: 2018
Страна: США
Жанр: Фантастика, боевик, триллер, драма, криминал
Продолжительность: ~ 00:55:00
Перевод: Профессиональный (многоголосый закадровый) | NewStudio
Субтитры: Отсутствуют

Режиссёр: Энди Годдард, Марк Йобст, Кларк Джонсон

В ролях:

Майк Колтер, Симон Миссик, Тео Росси, Элфри Вудард, Джастин Суэйн, Джон Кларенс Стюарт, Шон Рейнгголд, Розарио Доусон, Карен Питтман, Рон Сепас Джонс

Описание:

Оказавшись по ложному обвинению в тюрьме, Карл Лукас становится невольным участником научного эксперимента, в результате которого он обрел огромную силу и пуленепробиваемую кожу. Эксперимент завершился разгромом лаборатории, и Карл смог сбежать. Поскольку он все еще разыскивается, Карл берет новое имя — Люк Кейдж — и возвращается в родной Гарлем. Он живет тихо, старается не привлекать к себе внимания. Люк Кейдж — обычный парень, который работает уборщиком в парикмахерской «У Папаши». Однако в районе все неспокойно. Многочисленные разборки, грабежи и вымогательства, в которых замешаны криминальные бароны и их банды, а также коррупционные политики — от всего этого страдают жители Гарлема. Люк должен сделать выбор — стоит ли продолжать скрываться, ведь у Люка есть свои скелеты в шкафу или же вмешаться и помочь...

rating


Качество: WEB-DLRip
Формат: AVI

Видео: XviD, 720x400 (16:9), 23.976 кадров/сек, ~1500 Кбит/сек
Аудио Rus: MP3, 48 kHz, 2 ch, 128 Кбит/сек | NewStudio
Аудио Eng: MP3, 48 kHz, 2 ch, 128 Кбит/сек
• Очисткой от рекламы занимался: Wanterlude
01. Брат по духу №1 / Soul Brother #1
02. Выяснение отношений / Straighten It Out
03. Срыв / Wig Out
04. Перехожу в атаку / I Get Physical
05. Души не осталось / All Souled Out
06. Подвал / The Basement
07. Снова и снова / On and On
08. Если все просто, значит неправильно / If It Ain't Rough, It Ain't Right
09. Во имя отца / For Pete's Sake
10. Основной ингредиент / The Main Ingredient
11. Творец / The Creator
12. Меня не очернишь / Can't Front On Me
13. Ностальгия по тебе / They Reminisce Over You
Общее
Полное имя : E:\Luke Cage (Season 2) WEB-DLRip\Marvel's.Luke.Cage.s02e01.WEB-DLRip.RGzsRutracker.[Wentworth_Miller].avi
Формат : AVI
Формат/Информация : Audio Video Interleave
Размер файла : 695 Мбайт
Продолжительность : 56 м. 11 с.
Общий поток : 1730 Кбит/сек
Программа кодирования : VirtualDubMod 1.5.10.3 | www.virtualdub-fr.org || (build 2550/release)
Библиотека кодирования : VirtualDubMod build 2550/release

Видео
Идентификатор : 0
Формат : MPEG-4 Visual
Профиль формата : Advanced Simple@L5
Настройки формата : BVOP2
Параметр BVOP формата : 2
Параметр QPel формата : Нет
Параметр GMC формата : Без точки перехода
Параметр матрицы формата : Default (MPEG)
Идентификатор кодека : XVID
Идентификатор кодека/Подсказка : XviD
Продолжительность : 56 м. 11 с.
Битрейт : 1464 Кбит/сек
Ширина : 720 пикселей
Высота : 400 пикселей
Соотношение сторон : 16:9
Частота кадров : 23,976 (24000/1001) кадра/сек
Цветовое пространство : YUV
Субдискретизация насыщенности : 4:2:0
Битовая глубина : 8 бит
Тип развёртки : Прогрессивная
Метод сжатия : С потерями
Бит/(Пиксели*Кадры) : 0.212
Размер потока : 588 Мбайт (85%)
Библиотека кодирования : XviD 61

Аудио #1
Идентификатор : 1
Формат : MPEG Audio
Версия формата : Version 1
Профиль формата : Layer 3
Идентификатор кодека : 55
Идентификатор кодека/Подсказка : MP3
Продолжительность : 55 м. 16 с.
Вид битрейта : Постоянный
Битрейт : 128 Кбит/сек
Каналы : 2 канала
Частота : 48,0 КГц
Частота кадров : 41,667 кадра/сек (1152 SPF)
Метод сжатия : С потерями
Размер потока : 50,6 Мбайт (7%)
Выравнивание : Соединение по промежуткам
Продолжительность промежутка : 42 мс. (1,02 видеокадр)
Время предзагрузки промежутка : 504 мс.
Библиотека кодирования : LAME3.98r
Настройки программы : -m s -V 4 -q 2 -lowpass 17 -b 128

Аудио #2
Идентификатор : 2
Формат : MPEG Audio
Версия формата : Version 1
Профиль формата : Layer 3
Настройки формата : Joint stereo / MS Stereo
Идентификатор кодека : 55
Идентификатор кодека/Подсказка : MP3
Продолжительность : 55 м. 16 с.
Вид битрейта : Постоянный
Битрейт : 128 Кбит/сек
Каналы : 2 канала
Частота : 48,0 КГц
Метод сжатия : С потерями
Размер потока : 50,6 Мбайт (7%)
Выравнивание : Соединение по промежуткам
Продолжительность промежутка : 42 мс. (1,02 видеокадр)
Время предзагрузки промежутка : 504 мс.
Библиотека кодирования : LAME3.97
скриншот  скриншот  скриншот  скриншот  
Внимание! Раздача ведётся путём добавления новых серий; при каждом добавлении создаётся новый торрент. Чтобы начать докачку новой серии, пользователям необходимо сделать следующее:
(1) остановить скачивание,
(2) удалить старый торрент у себя из клиента (старые серии удалять не надо),
(3) скачать новый торрент и запустить его у себя в клиенте вместо старого, при этом указать клиенту путь в старую папку куда и должно происходить скачивание новых серий.

Ваш клиент при этом должен произвести хеширование (проверку) старой папки (если не производит сам - помогите ему сделать это), и будет докачивать только те серии которых у вас ещё нет. Старые серии при этом не удаляются, а продолжают раздаваться!

Eсли вы уже удалили старые серии, то предотвратить повторную закачку старых серий можно, отжав галочку в соответствующих местах при запуске нового торрента. По возможности, желательно не удалять старые серии как можно дольше чтобы релизёр не столько продолжал раздавать старые серии, а смог сконцентрироваться на новых.
pb.wtf



Скачать Люк Кейдж через торрент http://pic1.kartinco.top/images/12/edsgs.jpg Скачать фильм Люк Кейдж через торрент бесплантно в хорошем качестве Описание: Оказавшись по ложному обвинению в тюрьме, Карл Лукас становится невольным участником научного эксперимента, в результате которого ... 10 10 3
Торрент: Зарегистрирован [2019-01-09 08:22] · скачан: 33 раз
Статус: √ проверено
Размер: 9.42 GB
Как cкачать? Как скачать Люк Кейдж через торрент | qTorrent

% Раздел Тема Автор DL S | L
Зарубежные сериалы [ 21.71 GB ] Люк Кейдж / Luke Cage / Сезон: 2 / Серии 1-13 из 13 [2018 WEB-DLRip 1080p] [MVO] killermax2013 Скачать
1 | 0
Зарубежные сериалы [ 136.72 GB ] Люк Кейдж / Luke Cage / Сезон: 2 / Серии: 1-13 из 13 [2018 UHD WEBRip 2160p] 2xMVO sheker187 Скачать
1 | 0
Зарубежные сериалы [ 12.56 GB ] Люк Кейдж / Luke Cage / Сезон: 2 / Серии 1-13 из 13 [2018 WEBRip 720p] [MVO] killermax2013 Скачать
1 | 0
Зарубежные сериалы [ 9.53 GB ] Люк Кейдж / Luke Cage / Сезон: 2 / Серии 1-13 из 13 [2018 WEBRip] [MVO] killermax2013 Скачать
1 | 0
Зарубежные сериалы [ 21.4 GB ] Люк Кейдж / Luke Cage / Сезон: 2 / Серии 1-13 из 13 [2018 WEBRip 1080p] [MVO] killermax2013 Скачать
1 | 0
Зарубежные сериалы [ 7.39 GB ] Люк Кейдж / Luke Cage / Сезон: 2 / Серии 1-13 из 13 [2018 WEBRip] [MVO] killermax2013 Скачать
1 | 0
Зарубежные сериалы [ 8.23 GB ] Люк Кейдж / Luke Cage / Сезон: 2 / Серии 1-13 из 13 [2018 WEBRip] [DVO] killermax2013 Скачать
1 | 0

28-11-2019 20:33  

Отключить всю рекламу на сайте

    Дорогой пользователь! Огромная просьба, поблагодарите релизера, оцените раздачу и оставьте свои комментарий, если Вы скачали Люк Кейдж через торрент бесплатно! Внесите свою лепту в развитие PiratBit!
    Комментировать посты могут только пользователи прошедшие не сложную регистрацию
    Показать сообщения:    

    Люк Кейдж через торрент
    Скачать бесплатно Люк Кейдж
    Люк Кейдж скачать торрент
    Люк Кейдж смотреть онлайн
    Cкачать фильм Люк Кейдж бесплатно
    Люк Кейдж скачать торрент в хорошем качестве
    Люк Кейдж смотреть онлайн бесплатно в хорошем качестве


    Вы не можете начинать темы
    Вы не можете отвечать на сообщения
    Вы не можете редактировать свои сообщения
    Вы не можете удалять свои сообщения
    Вы не можете голосовать в опросах
    Вы не можете прикреплять файлы к сообщениям
    Вы можете скачивать файлы