Всегда рабочее зеркало без VPN и Proxy просто перед .vidak.icu напиши любое слово или цифру, Пример http://wmzj.vidak.icu

MVO

Лицензия

1 сезон

1

1 сезон

iTunes

1 сезон

13

1 сезон

Deluxe

pack

Рекомендуем

Repack

30

ВАЖНО

RePack

MK11

RePack

jed

RePack

fifa19

RePack

RDR2

RePack

NEED FOR SPEED™ PAYBACK

Кинопоиск HD

6 сезон

 Острые козырьки 6 сезон

Все сериалы

все сериалы на PB.wtf

RePack

FAR CRY 5
  
Magnet ссылка

Разлом / Loophole (Дженни Айверс) [2019, Фантастика, WEB-DL 720p] MVO [@[email protected]] pb.wtf

Разлом через торрент pb.wtf

Размер: 3.35 GB | Добавлен: 3 года 5 мес. назад | Торрент скачан:65 раз
Смотреть онлайн Разлом | Скачать    Ребята, помогите собрать деньги на оплату серверов!!!

09-01-2019 08:47 Разлом Скачать торрент  

Разлом / LoopholeГод выпуска: 2019
Страна: США
Жанр: Фантастика
Продолжительность: 01:29:13
Перевод: Любительский (многоголосый) | @[email protected]
Субтитры: отсутствуют

Режиссер: Дженни Айверс

rating

В ролях:

Хлоя Лукасиак, Кера О'Брайон, Тимоти Э. Гудвин, Девен Бромм, Габриэль Валладарес, Эмили Лапизарди, Дэвис Осборн, Майкл Сиглер, Уилл Стекман, Гари Ли Винсент

Описание:

Будущее жизни на Земле зависит от равновесия добра и зла, и обе стороны пытаются найти последнюю из рода Иуды, чтобы одержать победу в этой борьбе. Ею оказывается простая студентка, Лекси Смит - теперь она знает, кто она такая, и как ей надо действовать - но хватит ли ей времени для спасения всего человечества?

Качество: WEB-DL 720p
Формат: MKV

Видео: h.264,4 991 kb/s, 1280x528
Аудио#1: Русский, (AC3, 2 ch, 384 Кбит/с)
скриншот  скриншот  скриншот  

Общее
Уникальный идентификатор : 172863659463703616622217723243912087766 (0x820C546E26505648B8E974F0E1B1C8D6)
Полное имя : E:\торреннты\Loophole.2019.P.WEB-DL.72Op_KOSHARA.mkv
Формат : Matroska
Версия формата : Version 2
Размер файла : 3,35 Гбайт
Продолжительность : 1 ч. 29 м.
Режим общего битрейта : Переменный
Общий поток : 5377 Кбит/сек
Дата кодирования : UTC 2019-01-08 20:10:04
Программа кодирования : mkvmerge v8.3.0 ('Over the Horizon') 64bit
Библиотека кодирования : libebml v1.3.1 + libmatroska v1.4.2

Видео
Идентификатор : 1
Формат : AVC
Формат/Информация : Advanced Video Codec
Профиль формата : [email protected]
Настройки формата : CABAC / 4 Ref Frames
Параметр CABAC формата : Да
Параметр RefFrames формата : 4 кадра
Идентификатор кодека : V_MPEG4/ISO/AVC
Продолжительность : 1 ч. 29 м.
Вид битрейта : Переменный
Битрейт : 4991 Кбит/сек
Максимальный битрейт : 5500 Кбит/сек
Ширина : 1280 пикселей
Высота : 528 пикселей
Соотношение сторон : 2,40:1
Режим частоты кадров : Постоянный
Частота кадров : 23,976 (24000/1001) кадра/сек
Стандарт вещания : Component
Цветовое пространство : YUV
Субдискретизация насыщенности : 4:2:0
Битовая глубина : 8 бит
Тип развёртки : Прогрессивная
Бит/(Пиксели*Кадры) : 0.302
Размер потока : 3,04 Гбайт (91%)
Default : Да
Forced : Нет
Цветовой диапазон : Limited
Основные цвета : BT.709
Характеристики трансфера : BT.709
Коэффициенты матрицы : BT.709

Аудио
Идентификатор : 2
Формат : AC-3
Формат/Информация : Audio Coding 3
Идентификатор кодека : A_AC3
Продолжительность : 1 ч. 29 м.
Вид битрейта : Постоянный
Битрейт : 384 Кбит/сек
Каналы : 2 канала
Расположение каналов : Front: L R
Частота : 48,0 КГц
Частота кадров : 31,250 кадров/сек (1536 SPF)
Битовая глубина : 16 бит
Метод сжатия : С потерями
Размер потока : 245 Мбайт (7%)
ServiceKind/String : Complete Main
Default : Да
Forced : Нет

pb.wtf



Скачать Разлом через торрент https://d.radikal.ru/d32/1901/ac/cb34b7e99d9e.jpg Скачать, смотреть онлайн Разлом бесплантно в хорошем качестве Описание: Будущее жизни на Земле зависит от равновесия добра и зла, и обе стороны пытаются найти последнюю из рода Иуды, чтобы одержать ... 8.3 10 6
Торрент: Зарегистрирован [2019-01-09 08:47] · скачан: 65 раз
Статус: T временная
Размер: 3.35 GB
Как cкачать? Как скачать Разлом через торрент | UTorrent

% Раздел Тема Автор DL S | L
T Фильмы (WEB-DL 720p, 1080p) [ 3.64 GB ] Лазейка / Разлом / Loophole [2019 WEB-DL 1080p] MVO [HDRezka Studio] bober100 Скачать
1 | 0
T Фильмы (мультфильмы) cо спонсором показа (Новинки AVI/MKV) [ 1.37 GB ] Разлом / Loophole [2019 WEB-DLRip] MVO [@[email protected]] bober100 Скачать
1 | 0

28-11-2019 20:33  

Отключить всю рекламу на сайте

    Дорогой пользователь! Огромная просьба, поблагодарите релизера, оцените раздачу и оставьте свои комментарий, если Вы скачали Разлом через торрент бесплатно!
    Комментировать посты могут только пользователи прошедшие не сложную регистрацию
    Показать сообщения:    

    Разлом через торрент
    Скачать бесплатно Разлом
    Разлом скачать торрент
    Разлом смотреть онлайн
    Cкачать фильм Разлом бесплатно
    Разлом скачать торрент в хорошем качестве
    Разлом смотреть онлайн бесплатно в хорошем качестве


    Вы не можете начинать темы
    Вы не можете отвечать на сообщения
    Вы не можете редактировать свои сообщения
    Вы не можете удалять свои сообщения
    Вы не можете голосовать в опросах
    Вы не можете прикреплять файлы к сообщениям
    Вы можете скачивать файлы