Ребята, если до конца года каждый наш пользователь пожертвует хотя бы 10 рублей, нам хватит денег оплатить все наши расходы.

iTunes

Хэллоуин

iTunes

venom

iTunes

Вы умрете, или мы вернем вам деньги

iTunes

iTunes

Тайна дома с часами

iTunes

Ничего хорошего в отеле «Эль рояль»

1080p

Хит недели

Лицензия

Агент Джонни Инглиш 3.0

ИГРА 18+

pack

RePack

Battlefield V

RePack

Assassins Creed: Odyssey
pack

Проголосуй

Лучший релизер 2018

RePack

Darksiders 3

iTunes 4K

venom Хит недели

RePack

fifa19

!!Акция!!

Alien_RageХит недели

RePack

NEED FOR SPEED™ PAYBACK

SATRip

9 сезон

Бесстыжие 9 сезон

Все сериалы

все сериалы на PB.wtf

iTunes

Мэнди

RePack

FAR CRY 5
  

Разлом / Loophole (Дженни Айверс) [2019, Фантастика, WEB-DL 1080p] MVO [@MUZOBOZ@]

Разлом через торрент

Раздают: 6 [ 0 KB/s ]
Размер: 3.74 GB | Добавлен: 8 д. назад | Торрент скачан:149 раз
Скачать  

09-01-2019 08:47 Разлом Скачать торрент  

Разлом / LoopholeГод выпуска: 2019
Страна: США
Жанр: Фантастика
Продолжительность: 01:29:13
Перевод: Любительский (многоголосый) | @MUZOBOZ@
Субтитры: отсутствуют

Режиссер: Дженни Айверс

rating

В ролях:

Хлоя Лукасиак, Кера О'Брайон, Тимоти Э. Гудвин, Девен Бромм, Габриэль Валладарес, Эмили Лапизарди, Дэвис Осборн, Майкл Сиглер, Уилл Стекман, Гари Ли Винсент

Описание:

Будущее жизни на Земле зависит от равновесия добра и зла, и обе стороны пытаются найти последнюю из рода Иуды, чтобы одержать победу в этой борьбе. Ею оказывается простая студентка, Лекси Смит - теперь она знает, кто она такая, и как ей надо действовать - но хватит ли ей времени для спасения всего человечества?

Качество: WEB-DL 1080p
Формат: MKV

Видео: h.264,5 609 kb/s, 1920x792
Аудио: Русский, (AC3, 2 ch, 384 Кбит/с)
скриншот  скриншот  скриншот  

Общее
Уникальный идентификатор : 254007281853138004046328533016896743290 (0xBF1805E4B9F03EAAA1F6F2B96996277A)
Полное имя : E:\торреннты\Loophole.2019.P.WEB-DL.1O8Op_KOSHARA.mkv
Формат : Matroska
Версия формата : Version 2
Размер файла : 3,74 Гбайт
Продолжительность : 1 ч. 29 м.
Режим общего битрейта : Переменный
Общий поток : 5994 Кбит/сек
Дата кодирования : UTC 2019-01-08 20:10:35
Программа кодирования : mkvmerge v8.3.0 ('Over the Horizon') 64bit
Библиотека кодирования : libebml v1.3.1 + libmatroska v1.4.2

Видео
Идентификатор : 1
Формат : AVC
Формат/Информация : Advanced Video Codec
Профиль формата : High@L4.1
Настройки формата : CABAC / 4 Ref Frames
Параметр CABAC формата : Да
Параметр RefFrames формата : 4 кадра
Идентификатор кодека : V_MPEG4/ISO/AVC
Продолжительность : 1 ч. 29 м.
Вид битрейта : Переменный
Битрейт : 5609 Кбит/сек
Максимальный битрейт : 6300 Кбит/сек
Ширина : 1920 пикселей
Высота : 792 пикселя
Соотношение сторон : 2,40:1
Режим частоты кадров : Постоянный
Частота кадров : 23,976 (24000/1001) кадра/сек
Стандарт вещания : Component
Цветовое пространство : YUV
Субдискретизация насыщенности : 4:2:0
Битовая глубина : 8 бит
Тип развёртки : Прогрессивная
Бит/(Пиксели*Кадры) : 0.151
Размер потока : 3,42 Гбайт (92%)
Default : Да
Forced : Нет
Цветовой диапазон : Limited
Основные цвета : BT.709
Характеристики трансфера : BT.709
Коэффициенты матрицы : BT.709

Аудио
Идентификатор : 2
Формат : AC-3
Формат/Информация : Audio Coding 3
Идентификатор кодека : A_AC3
Продолжительность : 1 ч. 29 м.
Вид битрейта : Постоянный
Битрейт : 384 Кбит/сек
Каналы : 2 канала
Расположение каналов : Front: L R
Частота : 48,0 КГц
Частота кадров : 31,250 кадров/сек (1536 SPF)
Битовая глубина : 16 бит
Метод сжатия : С потерями
Размер потока : 245 Мбайт (6%)
ServiceKind/String : Complete Main
Default : Да
Forced : Нет




Скачать Разлом через торрент https://d.radikal.ru/d32/1901/ac/cb34b7e99d9e.jpg Скачать фильм Разлом через торрент бесплантно в хорошем качестве Описание: Будущее жизни на Земле зависит от равновесия добра и зла, и обе стороны пытаются найти последнюю из рода Иуды, чтобы одержать ... 8.9 10 8
Торрент: Зарегистрирован [2019-01-09 08:47] · скачан: 149 раз
Статус: T временная
Размер: 3.74 GB
Как cкачать? Как скачать Разлом через торрент | qTorrent

% Раздел Тема Автор DL S | L
T Фильмы (мультфильмы) cо спонсором показа (Новинки AVI/MKV) [ 1.37 GB ] Разлом / Loophole [2019 WEB-DLRip] MVO [@MUZOBOZ@] bober100 Скачать
6 | 0
T Фильмы (мультфильмы) cо спонсором показа (Новинки AVI/MKV) [ 3.35 GB ] Разлом / Loophole [2019 WEB-DL 720p] MVO [@MUZOBOZ@] bober100 Скачать
3 | 0


>> Регистрируемся здесь <<






Отзывы и комментарии о схеме читаем и пишем здесь: ---> Отзывы и комментарии о схеме

Новые благодарочки в телеграм довольных пользователей:
скриншот   скриншот   скриншот   скриншот   скриншот
    Дорогой пользователь! Огромная просьба, поблагодарите релизера, оцените раздачу и оставьте свои комментарий, если Вы скачали Разлом через торрент бесплатно! Внесите свою лепту в развитие PiratBit!
    Комментировать посты могут только пользователи прошедшие не сложную регистрацию
    Показать сообщения:    

    Разлом через торрент
    Скачать бесплатно Разлом
    Разлом скачать торрент
    Разлом смотреть онлайн
    Cкачать фильм Разлом бесплатно
    Разлом скачать торрент в хорошем качестве
    Разлом смотреть онлайн бесплатно в хорошем качестве


    Вы не можете начинать темы
    Вы не можете отвечать на сообщения
    Вы не можете редактировать свои сообщения
    Вы не можете удалять свои сообщения
    Вы не можете голосовать в опросах
    Вы не можете прикреплять файлы к сообщениям
    Вы можете скачивать файлы