Всегда рабочее зеркало без VPN и Proxy просто перед .vidak.icu напиши любое слово или цифру, Пример http://yflg.vidak.icu

MVO

Лицензия

1 сезон

1

1 сезон

iTunes

1 сезон

13

1 сезон

Deluxe

pack

Рекомендуем

Пиратка

30

ВАЖНО

RePack

MK11

RePack

jed

RePack

fifa19

RePack

RDR2

RePack

NEED FOR SPEED™ PAYBACK

Кинопоиск HD

6 сезон

 Острые козырьки 6 сезон

Все сериалы

все сериалы на PB.wtf

RePack

FAR CRY 5
  
Magnet ссылка

Лазейка / Разлом / Loophole (Дженни Айверс) [2019, Фантастика, WEB-DL 1080p] MVO [HDRezka Studio] pb.wtf

Лазейка через торрент pb.wtf

Размер: 3.64 GB | Добавлен: 2 года 10 мес. назад | Торрент скачан:124 раза
Смотреть онлайн Лазейка | Скачать    Ребята, помогите собрать деньги на оплату серверов!!!

09-01-2019 08:47 Лазейка Скачать торрент  

Лазейка / Разлом / Loophole
Год выпуска: 2019
Страна: США
Жанр: Фантастика
Продолжительность: 01:26:27
Перевод: Профессиональный (многоголосый) | HDRezka Studio
Субтитры: Русские форс., английские

Режиссер: Дженни Айверс

rating

В ролях: Хлоя Лукасиак, Кера О'Брайон, Тимоти Э. Гудвин, Девен Бромм, Габриэль Валладарес, Эмили Лапизарди, Дэвис Осборн, Майкл Сиглер, Уилл Стекман, Гари Ли Винсент

Описание: Будущее жизни на Земле зависит от равновесия добра и зла, и обе стороны пытаются найти последнюю из рода Иуды, чтобы одержать победу в этой борьбе. Ею оказывается простая студентка, Лекси Смит - теперь она знает, кто она такая, и как ей надо действовать - но хватит ли ей времени для спасения всего человечества?

Качество: WEB-DL 1080p
Формат: MKV

Видео: MPEG-4 AVC, 5628 Кбит/с, 1920x816
Аудио: Русский, (AАC, 2 ch, 178 Кбит/с)
Аудио: английский (Е-AC3, 2 ch, 224 Кбит/с)
скриншот  скриншот  скриншот  скриншот  

General
Unique ID : 266749650349759682362642168802110890386 (0xC8AE1D2A46DC2AC18483DB8670506192)
Complete name : G:\Loophole.2017.WEB-DL.1080p.mkv
Format : Matroska
Format version : Version 4 / Version 2
File size : 3.64 GiB
Duration : 1 h 26 min
Overall bit rate : 6 033 kb/s
Encoded date : UTC 2019-08-31 00:55:15
Writing application : mkvmerge v20.0.0 ('I Am The Sun') 64-bit
Writing library : libebml v1.3.5 + libmatroska v1.4.8

Video
ID : 1
Format : AVC
Format/Info : Advanced Video Codec
Format profile : High@L4
Format settings : CABAC / 4 Ref Frames
Format settings, CABAC : Yes
Format settings, RefFrames : 4 frames
Codec ID : V_MPEG4/ISO/AVC
Duration : 1 h 26 min
Bit rate mode : Constant
Bit rate : 5 628 kb/s
Nominal bit rate : 10 000 kb/s
Width : 1 920 pixels
Height : 816 pixels
Display aspect ratio : 2.35:1
Frame rate mode : Constant
Frame rate : 23.976 (24000/1001) FPS
Color space : YUV
Chroma subsampling : 4:2:0
Bit depth : 8 bits
Scan type : Progressive
Bits/(Pixel*Frame) : 0.150
Stream size : 3.40 GiB (93%)
Language : English
Default : Yes
Forced : No
Color range : Limited
Color primaries : BT.709
Transfer characteristics : BT.709
Matrix coefficients : BT.709

Audio #1
ID : 2
Format : AAC
Format/Info : Advanced Audio Codec
Format profile : LC
Codec ID : A_AAC-2
Duration : 1 h 26 min
Bit rate : 178 kb/s
Channel(s) : 2 channels
Channel positions : Front: L R
Sampling rate : 48.0 kHz
Frame rate : 46.875 FPS (1024 SPF)
Compression mode : Lossy
Stream size : 110 MiB (3%)
Title : MVO HDRezka Studio
Language : Russian
Default : Yes
Forced : No

Audio #2
ID : 3
Format : E-AC-3
Format/Info : Enhanced Audio Coding 3
Codec ID : A_EAC3
Duration : 1 h 26 min
Bit rate mode : Constant
Bit rate : 224 kb/s
Channel(s) : 2 channels
Channel positions : Front: L R
Sampling rate : 48.0 kHz
Frame rate : 187.500 FPS (256 SPF)
Compression mode : Lossy
Stream size : 139 MiB (4%)
Language : English
Service kind : Complete Main
Default : No
Forced : No

Text #1
ID : 4
Format : UTF-8
Codec ID : S_TEXT/UTF8
Codec ID/Info : UTF-8 Plain Text
Duration : 1 h 23 min
Bit rate : 0 b/s
Count of elements : 11
Stream size : 578 Bytes (0%)
Title : forced
Language : Russian
Default : Yes
Forced : Yes

Text #2
ID : 5
Format : UTF-8
Codec ID : S_TEXT/UTF8
Codec ID/Info : UTF-8 Plain Text
Duration : 1 h 23 min
Bit rate : 56 b/s
Count of elements : 1177
Stream size : 34.4 KiB (0%)
Language : English
Default : No
Forced : No

pb.wtf



Скачать Лазейка через торрент https://d.radikal.ru/d32/1901/ac/cb34b7e99d9e.jpg Скачать, смотреть онлайн Лазейка бесплантно в хорошем качестве Описание: Будущее жизни на Земле зависит от равновесия добра и зла, и обе стороны пытаются найти последнюю из рода Иуды, чтобы одержать ... 9.2 10 11
Торрент: Зарегистрирован [2019-08-31 06:12] · скачан: 124 раз
Статус: T временная
Размер: 3.64 GB
Как cкачать? Как скачать Лазейка через торрент | UTorrent

28-11-2019 20:33  

Отключить всю рекламу на сайте

31-08-2019 07:31 Лазейка Скачать торрент  

выглядить как очередной ассилумовский высерpb.wtf



31-08-2019 07:57 Лазейка Скачать торрент  

Мне кажется, что фильм 17 года, а не 19.pb.wtf



31-08-2019 09:15 Лазейка Скачать торрент  

За старание спасибо, но фильмец pb.wtf



    Дорогой пользователь! Огромная просьба, поблагодарите релизера, оцените раздачу и оставьте свои комментарий, если Вы скачали Лазейка через торрент бесплатно!
    Комментировать посты могут только пользователи прошедшие не сложную регистрацию
    Показать сообщения:    

    Лазейка через торрент
    Скачать бесплатно Лазейка
    Лазейка скачать торрент
    Лазейка смотреть онлайн
    Cкачать фильм Лазейка бесплатно
    Лазейка скачать торрент в хорошем качестве
    Лазейка смотреть онлайн бесплатно в хорошем качестве


    Вы не можете начинать темы
    Вы не можете отвечать на сообщения
    Вы не можете редактировать свои сообщения
    Вы не можете удалять свои сообщения
    Вы не можете голосовать в опросах
    Вы не можете прикреплять файлы к сообщениям
    Вы можете скачивать файлы