2 сезон

iTunes

MVO

1

2 сезон

iTunes

iTunes

1 сезон

RePack

30

Ultimate

ВАЖНО

ИГРА 18+

pack

RePack

MK11
pack

Легкие деньги

RePack

jed

RePack

fifa19

RePack

RDR2

RePack

NEED FOR SPEED™ PAYBACK

4 сезон

9 сезон

Бесстыжие 9 сезон

Все сериалы

все сериалы на PB.wtf

RePack

FAR CRY 5

Anonymous, добрый день, мы не успеваем собрать деньги на оплату серверов за декабрь и январь, помогите нам пожалуйста в это трудное время. В качестве благодарности мы отключим Вам всю рекламу на сайте (укажите свой ник в строку Ваше имя)!

×
  
Magnet ссылка

Один дома / Home Alone (Крис Коламбус) [1990, комедия, семейный, UHD WEBRip 2160p] [SDR] DUB + MVO + 2xDVO + 3xAVO pb.wtf

Один дома через торрент pb.wtf

Раздают: 2 [ 0 KB/s ]
Размер: 28.88 GB | Добавлен: 2 года назад | Торрент скачан:115 раз
Скачать  

09-01-2019 08:53 Один дома Скачать торрент  

Один дома / Home Alone

Год выпуска: 1990
Страна: США
Жанр: комедия, семейный
Продолжительность: 01:42:59
Перевод: Дублированный, профессиональный многоголосый, профессиональный двухголосый, авторский
Субтитры: Русские, английские
Режиссер: Крис Коламбус
В ролях:

Маколей Калкин (Kevin), Джо Пеши (Harry), Дэниел Стерн (Marv), Кэтрин О’Хара (Kate), Джон Хёрд (Peter), Робертс Блоссом (Marley), Джерри Бэммен (Uncle Frank), Девин Рэтрей (Buzz), Джон Кэнди (Gus Polinski), Киран Калкин (Fuller), Анджела Геталс (Linnie), Хиллари Вульф (Megan)
Описание:
Американское семейство отправляется из Чикаго в Европу, но в спешке сборов бестолковые родители забывают дома... одного из своих детей. Юное создание, однако, не теряется и демонстрирует чудеса изобретательности. И когда в дом залезают грабители, им приходится не раз пожалеть о встрече с милым крошкой.
Рейтинг:

MPAA: PG - Рекомендуется присутствие родителей
Качество: UHD WEBRip 2160p | SDR
Формат: MKV
Видео: HEVC, 28 Мбит/с, 3840x2076, 23.976 кадр/с, 10 бит
Аудио №1: Russian / Dolby Digital Audio / 2.0 / 48 kHz / 192 kbps Дубляж
Аудио №2: Russian / Dolby Digital Audio / 5.1 / 48 kHz / 384 kbps Многоголосый закадровый, R5
Аудио №3: Russian / DTS Audio / 5.1 / 48 kHz / 1509 kbps Двухголосый закадровый, Премьер видео фильм
Аудио №4: Russian / DTS Audio / 5.1 / 48 kHz / 1509 kbps Двухголосый закадровый, НТВ/ОРТ
Аудио №5: Russian / DTS Audio / 5.1 / 48 kHz / 1509 kbps Антон Карповский
Аудио №6: Russian / DTS Audio / 5.1 / 48 kHz / 1509 kbps Алексей Михалев (поздний)
Аудио №7: Russian / DTS Audio / 5.1 / 48 kHz / 1509 kbps Василий Горчаков
Аудио №8: English / DTS-HD Master Audio / 5.1 / 48 kHz / 4022 kbps Оригинал
Навигация по главам: есть
General
Unique ID : 200045550180014299230707799922417234366 (0x967F5F1CCE9BA9E7A47682245A7271BE)
Complete name : X:\Releases\Home.Alone.1990.WEBRip.HEVC.SDR.10bit.2160p.mkv
Format : Matroska
Format version : Version 4
File size : 28.9 GiB
Duration : 1 h 42 min
Overall bit rate mode : Variable
Overall bit rate : 40.1 Mb/s
Encoded date : UTC 2019-01-08 06:52:36
Writing application : mkvmerge v30.1.0 ('Forever And More') 64-bit
Writing library : libebml v1.3.6 + libmatroska v1.4.9
Attachments : poster.jpg

Video
ID : 1
Format : HEVC
Format/Info : High Efficiency Video Coding
Format profile : Main 10@L5@Main
Codec ID : V_MPEGH/ISO/HEVC
Duration : 1 h 42 min
Bit rate : 28.0 Mb/s
Width : 3 840 pixels
Height : 2 076 pixels
Display aspect ratio : 1.85:1
Frame rate mode : Constant
Frame rate : 23.976 (24000/1001) FPS
Color space : YUV
Chroma subsampling : 4:2:0 (Type 2)
Bit depth : 10 bits
Bits/(Pixel*Frame) : 0.147
Stream size : 20.1 GiB (70%)
Writing library : x265 2.8+19-bcdc610cf5f0:[Windows][MSVC 1914][64 bit] 10bit
Encoding settings : cpuid=1111039 / frame-threads=3 / numa-pools=8 / wpp / no-pmode / no-pme / no-psnr / no-ssim / log-level=2 / input-csp=1 / input-res=3840x2076 / interlace=0 / total-frames=148147 / level-idc=0 / high-tier=1 / uhd-bd=0 / ref=3 / no-allow-non-conformance / repeat-headers / annexb / aud / no-hrd / info / hash=0 / no-temporal-layers / no-open-gop / min-keyint=24 / keyint=240 / gop-lookahead=0 / bframes=4 / b-adapt=2 / b-pyramid / bframe-bias=0 / rc-lookahead=20 / lookahead-slices=8 / scenecut=40 / radl=0 / no-intra-refresh / ctu=64 / min-cu-size=8 / no-rect / no-amp / max-tu-size=32 / tu-inter-depth=1 / tu-intra-depth=1 / limit-tu=0 / rdoq-level=0 / dynamic-rd=0.00 / no-ssim-rd / signhide / no-tskip / nr-intra=0 / nr-inter=0 / no-constrained-intra / no-strong-intra-smoothing / max-merge=2 / limit-refs=3 / no-limit-modes / me=1 / subme=2 / merange=57 / temporal-mvp / weightp / no-weightb / no-analyze-src-pics / deblock=3:3 / no-sao / no-sao-non-deblock / rd=3 / no-early-skip / rskip / no-fast-intra / no-tskip-fast / no-cu-lossless / no-b-intra / no-splitrd-skip / rdpenalty=0 / psy-rd=2.00 / psy-rdoq=0.00 / no-rd-refine / no-lossless / cbqpoffs=0 / crqpoffs=0 / rc=crf / crf=21.0 / qcomp=0.60 / qpstep=4 / stats-write=0 / stats-read=0 / ipratio=1.40 / pbratio=1.30 / aq-mode=1 / aq-strength=1.00 / cutree / zone-count=0 / no-strict-cbr / qg-size=32 / no-rc-grain / qpmax=69 / qpmin=0 / no-const-vbv / sar=1 / overscan=0 / videoformat=5 / range=0 / colorprim=1 / transfer=1 / colormatrix=1 / chromaloc=1 / chromaloc-top=2 / chromaloc-bottom=2 / display-window=0 / max-cll=0,0 / min-luma=0 / max-luma=1023 / log2-max-poc-lsb=8 / vui-timing-info / vui-hrd-info / slices=1 / no-opt-qp-pps / no-opt-ref-list-length-pps / no-multi-pass-opt-rps / scenecut-bias=0.05 / no-opt-cu-delta-qp / no-aq-motion / no-hdr / no-hdr-opt / no-dhdr10-opt / no-idr-recovery-sei / analysis-reuse-level=5 / scale-factor=0 / refine-intra=0 / refine-inter=0 / refine-mv=0 / no-limit-sao / ctu-info=0 / no-lowpass-dct / refine-mv-type=0 / copy-pic=1 / max-ausize-factor=1.0 / no-dynamic-refine / no-single-sei
Default : Yes
Forced : No
Color range : Limited
Color primaries : BT.709
Transfer characteristics : BT.709
Matrix coefficients : BT.709

Audio #1
ID : 2
Format : AC-3
Format/Info : Audio Coding 3
Commercial name : Dolby Digital
Codec ID : A_AC3
Duration : 1 h 42 min
Bit rate mode : Constant
Bit rate : 192 kb/s
Channel(s) : 2 channels
Channel layout : L R
Sampling rate : 48.0 kHz
Frame rate : 31.250 FPS (1536 SPF)
Bit depth : 16 bits
Compression mode : Lossy
Delay relative to video : 21 ms
Stream size : 141 MiB (0%)
Title : DUB
Language : Russian
Service kind : Complete Main
Default : No
Forced : No

Audio #2
ID : 3
Format : AC-3
Format/Info : Audio Coding 3
Commercial name : Dolby Digital
Codec ID : A_AC3
Duration : 1 h 42 min
Bit rate mode : Constant
Bit rate : 384 kb/s
Channel(s) : 6 channels
Channel layout : L R C LFE Ls Rs
Sampling rate : 48.0 kHz
Frame rate : 31.250 FPS (1536 SPF)
Bit depth : 16 bits
Compression mode : Lossy
Delay relative to video : 21 ms
Stream size : 282 MiB (1%)
Title : MVO
Language : Russian
Service kind : Complete Main
Default : No
Forced : No

Audio #3
ID : 4
Format : DTS
Format/Info : Digital Theater Systems
Codec ID : A_DTS
Duration : 1 h 42 min
Bit rate mode : Constant
Bit rate : 1 510 kb/s
Channel(s) : 6 channels
Channel layout : C L R Ls Rs LFE
Sampling rate : 48.0 kHz
Frame rate : 93.750 FPS (512 SPF)
Bit depth : 24 bits
Compression mode : Lossy
Stream size : 1.08 GiB (4%)
Title : DVO Премьер видео фильм
Language : Russian
Default : Yes
Forced : No

Audio #4
ID : 5
Format : DTS
Format/Info : Digital Theater Systems
Codec ID : A_DTS
Duration : 1 h 42 min
Bit rate mode : Constant
Bit rate : 1 510 kb/s
Channel(s) : 6 channels
Channel layout : C L R Ls Rs LFE
Sampling rate : 48.0 kHz
Frame rate : 93.750 FPS (512 SPF)
Bit depth : 24 bits
Compression mode : Lossy
Stream size : 1.08 GiB (4%)
Title : DVO НТВ/ОРТ
Language : Russian
Default : No
Forced : No

Audio #5
ID : 6
Format : DTS
Format/Info : Digital Theater Systems
Codec ID : A_DTS
Duration : 1 h 42 min
Bit rate mode : Constant
Bit rate : 1 509 kb/s
Channel(s) : 6 channels
Channel layout : C L R Ls Rs LFE
Sampling rate : 48.0 kHz
Frame rate : 93.750 FPS (512 SPF)
Bit depth : 24 bits
Compression mode : Lossy
Stream size : 1.08 GiB (4%)
Title : AVO Антон Карповский
Language : Russian
Default : No
Forced : No

Audio #6
ID : 7
Format : DTS
Format/Info : Digital Theater Systems
Codec ID : A_DTS
Duration : 1 h 42 min
Bit rate mode : Constant
Bit rate : 1 509 kb/s
Channel(s) : 6 channels
Channel layout : C L R Ls Rs LFE
Sampling rate : 48.0 kHz
Frame rate : 93.750 FPS (512 SPF)
Bit depth : 24 bits
Compression mode : Lossy
Stream size : 1.08 GiB (4%)
Title : AVO Алексей Михалев - поздний
Language : Russian
Default : No
Forced : No

Audio #7
ID : 8
Format : DTS
Format/Info : Digital Theater Systems
Codec ID : A_DTS
Duration : 1 h 42 min
Bit rate mode : Constant
Bit rate : 1 509 kb/s
Channel(s) : 6 channels
Channel layout : C L R Ls Rs LFE
Sampling rate : 48.0 kHz
Frame rate : 93.750 FPS (512 SPF)
Bit depth : 24 bits
Compression mode : Lossy
Stream size : 1.08 GiB (4%)
Title : AVO Василий Горчаков
Language : Russian
Default : No
Forced : No

Audio #8
ID : 9
Format : DTS XLL
Format/Info : Digital Theater Systems
Commercial name : DTS-HD Master Audio
Codec ID : A_DTS
Duration : 1 h 42 min
Bit rate mode : Variable
Bit rate : 4 022 kb/s
Channel(s) : 6 channels
Channel layout : C L R Ls Rs LFE
Sampling rate : 48.0 kHz
Frame rate : 93.750 FPS (512 SPF)
Bit depth : 24 bits
Compression mode : Lossless
Delay relative to video : 4 ms
Stream size : 2.89 GiB (10%)
Language : English
Default : No
Forced : No

Text #1
ID : 10
Format : UTF-8
Codec ID : S_TEXT/UTF8
Codec ID/Info : UTF-8 Plain Text
Duration : 1 h 37 min
Bit rate : 83 b/s
Count of elements : 844
Stream size : 59.7 KiB (0%)
Title : Полные
Language : Russian
Default : Yes
Forced : No

Text #2
ID : 11
Format : UTF-8
Codec ID : S_TEXT/UTF8
Codec ID/Info : UTF-8 Plain Text
Duration : 1 h 41 min
Bit rate : 46 b/s
Count of elements : 1008
Stream size : 34.1 KiB (0%)
Title : Full
Language : English
Default : No
Forced : No

Menu
00:00:00.000 : en:Main Titles
00:03:47.060 : en:"I'm Living Alone!"
00:05:46.679 : en:Old Man Marley
00:08:49.278 : en:Spilled Milk
00:11:28.729 : en:"Everyone in This Family Hates Me."
00:13:43.239 : en:Head Counts Don't Always Count
00:19:27.457 : en:"I Made My Family Disappear!"
00:25:08.173 : en:"What Kind of Mother Am I?"
00:31:16.040 : en:"I'm the Man of the House!"
00:35:56.654 : en:I Took a Shower...
00:41:09.550 : en:Encounter With the Enemy
00:51:22.662 : en:The Man of the House Goes Shopping
00:57:38.580 : en:Everything's Full; Help From a Polka King
01:03:27.637 : en:A Message to Santa/Somewhere in My Memory
01:06:33.656 : en:The Real Old Man Marley
01:13:43.835 : en:"This Is My House - I Have to Denfend It!"
01:15:13.216 : en:"Merry Christmas, Little Fella!"
01:19:27.053 : en:"Do You Do Ironing?"; Too Hot to Handle
01:22:51.341 : en:"Come and Get Me!"
01:26:00.071 : en:The Slide for Life
01:28:45.069 : en:Outsmarted...And a Welcome Guest
01:33:32.231 : en:Christmas Morning
01:37:58.288 : en:Another Special Reunion
01:39:06.064 : en:End Titles/Somewhere in My Memory (Reprise)
01:42:54.126 : en:Everything's Full; Help From a Polka King
pb.wtf



Скачать Один дома через торрент https://c.radikal.ru/c35/1901/bb/fd33bfd9fc37.jpg Скачать фильм Один дома через торрент бесплантно в хорошем качестве Описание: Американское семейство отправляется из Чикаго в Европу, но в спешке сборов бестолковые родители забывают дома... одного из своих ... 5 10 1
Info! Золотая раздача, скачанное не засчитывается.
Торрент: Зарегистрирован [2019-01-09 08:53] · скачан: 115 раз
Статус: √ проверено
Размер: 28.88 GB
Как cкачать? Как скачать Один дома через торрент | UTorrent

28-11-2019 20:33  

Отключить всю рекламу на сайте

    Дорогой пользователь! Огромная просьба, поблагодарите релизера, оцените раздачу и оставьте свои комментарий, если Вы скачали Один дома через торрент бесплатно! Внесите свою лепту в развитие PiratBit!
    Комментировать посты могут только пользователи прошедшие не сложную регистрацию
    Показать сообщения:    

    Один дома через торрент
    Скачать бесплатно Один дома
    Один дома скачать торрент
    Один дома смотреть онлайн
    Cкачать фильм Один дома бесплатно
    Один дома скачать торрент в хорошем качестве
    Один дома смотреть онлайн бесплатно в хорошем качестве


    Вы не можете начинать темы
    Вы не можете отвечать на сообщения
    Вы не можете редактировать свои сообщения
    Вы не можете удалять свои сообщения
    Вы не можете голосовать в опросах
    Вы не можете прикреплять файлы к сообщениям
    Вы можете скачивать файлы