Ребята, если до конца года каждый наш пользователь пожертвует хотя бы 10 рублей, нам хватит денег оплатить все наши расходы.

iTunes

Хэллоуин

iTunes

venom

iTunes

Вы умрете, или мы вернем вам деньги

iTunes

iTunes

Тайна дома с часами

iTunes

Ничего хорошего в отеле «Эль рояль»

1080p

Хит недели

Лицензия

Агент Джонни Инглиш 3.0

ИГРА 18+

pack

RePack

Battlefield V

RePack

Assassins Creed: Odyssey
pack

Проголосуй

Лучший релизер 2018

RePack

Darksiders 3

iTunes 4K

venom Хит недели

RePack

fifa19

!!Акция!!

Alien_RageХит недели

RePack

NEED FOR SPEED™ PAYBACK

SATRip

9 сезон

Бесстыжие 9 сезон

Все сериалы

все сериалы на PB.wtf

iTunes

Мэнди

RePack

FAR CRY 5
  

Черная полоса / Fleuve noir (Эрик Зонка) [2018, триллер, драма, криминал, детектив, BDRip 1080p] MVO [@MUZOBOZ@]

Черная полоса через торрент

Раздают: 7 [ 474 KB/s ]
Размер: 10.4 GB | Добавлен: 8 д. назад | Торрент скачан:104 раза
Скачать  

09-01-2019 09:02 Черная полоса Скачать торрент  

Черная полоса / Fleuve noir Год выпуска: 2018
Страна: Франция, Бельгия
Жанр: триллер, драма, криминал, детектив
Продолжительность: 01:53:16
Перевод: Любительский (многоголосый) | @MUZOBOZ@
Субтитры: отсутствуют

Режиссер: Эрик Зонка

rating

В ролях:

Венсан Кассель, Ромен Дюрис, Сандрин Киберлэн, Элоди Буше, Шарль Берлинг, Афсиа Эрзи, Жером Пули, Феликс Бак, Лорена Телье, Стефан Войтович

Описание:

Комиссар Франсуа Висконти, видавший виды полицейский, расследует, на первый взгляд, рутинное дело, связанное с исчезновением подростка Дэни Арно. Комиссару кажутся подозрительными все: и сексапильная мать, и немногословный громила-отец, и даже школьный учитель Ян Беллэль, неожиданно предложивший полицейскому свою помощь в поисках. Следствие петляет от подозреваемого к подозреваемому, но никаких следов подростка нет, и шансов найти его живым все меньше и меньше.

Качество: BDRip 1080p
Формат: MKV

Видео: h.264, 12.4 Mb/s, 1920x804
Аудио: Русский (AC3, 2 ch, 448 Кбит/с)
скриншот  скриншот  скриншот  

Общее
Уникальный идентификатор : 185680185741950131241313754247691844725 (0x8BB0B3F67EFA43D8A0C9F6BC2F753C75)
Полное имя : E:\торреннты\Fleuve.noir.2018.P.BDRip.1O8Op_KOSHARA.mkv
Формат : Matroska
Версия формата : Version 2
Размер файла : 10,4 Гбайт
Продолжительность : 1 ч. 56 м.
Режим общего битрейта : Переменный
Общий поток : 12,8 Мбит/сек
Дата кодирования : UTC 2019-01-08 23:03:42
Программа кодирования : mkvmerge v8.3.0 ('Over the Horizon') 64bit
Библиотека кодирования : libebml v1.3.1 + libmatroska v1.4.2

Видео
Идентификатор : 2
Формат : AVC
Формат/Информация : Advanced Video Codec
Профиль формата : High@L4.1
Настройки формата : CABAC / 4 Ref Frames
Параметр CABAC формата : Да
Параметр RefFrames формата : 4 кадра
Идентификатор кодека : V_MPEG4/ISO/AVC
Продолжительность : 1 ч. 56 м.
Вид битрейта : Переменный
Битрейт : 12,4 Мбит/сек
Максимальный битрейт : 14,0 Мбит/сек
Ширина : 1920 пикселей
Высота : 804 пикселя
Соотношение сторон : 2,40:1
Режим частоты кадров : Постоянный
Частота кадров : 23,976 (24000/1001) кадра/сек
Стандарт вещания : Component
Цветовое пространство : YUV
Субдискретизация насыщенности : 4:2:0
Битовая глубина : 8 бит
Тип развёртки : Прогрессивная
Бит/(Пиксели*Кадры) : 0.327
Размер потока : 9,83 Гбайт (95%)
Default : Да
Forced : Нет
Цветовой диапазон : Limited
Основные цвета : BT.709
Характеристики трансфера : BT.709
Коэффициенты матрицы : BT.709

Аудио
Идентификатор : 1
Формат : AC-3
Формат/Информация : Audio Coding 3
Идентификатор кодека : A_AC3
Продолжительность : 1 ч. 56 м.
Вид битрейта : Постоянный
Битрейт : 448 Кбит/сек
Каналы : 2 канала
Расположение каналов : Front: L R
Частота : 48,0 КГц
Частота кадров : 31,250 кадров/сек (1536 SPF)
Битовая глубина : 16 бит
Метод сжатия : С потерями
Размер потока : 372 Мбайт (3%)
ServiceKind/String : Complete Main
Default : Да
Forced : Нет




Скачать Черная полоса через торрент https://a.radikal.ru/a30/1901/0a/e90269f24bd3.jpg Скачать фильм Черная полоса через торрент бесплантно в хорошем качестве Описание: Комиссар Франсуа Висконти, видавший виды полицейский, расследует, на первый взгляд, рутинное дело, связанное с исчезновением ... 10 10 3
Торрент: Зарегистрирован [2019-01-09 09:02] · скачан: 104 раз
Статус: # сомнительно
Размер: 10.4 GB
Как cкачать? Как скачать Черная полоса через торрент | qTorrent

% Раздел Тема Автор DL S | L
# Фильмы (мультфильмы) cо спонсором показа (Новинки AVI/MKV) [ 5.81 GB ] Черная полоса / Fleuve noir [2018 BDRip 720p] MVO [@MUZOBOZ@] bober100 Скачать
8 | 0
T Фильмы (мультфильмы) cо спонсором показа (Новинки AVI/MKV) [ 1.46 GB ] Черная полоса / Fleuve noir [2018 HDRip] MVO [@MUZOBOZ@] bober100 Скачать
23 | 0


>> Регистрируемся здесь <<






Отзывы и комментарии о схеме читаем и пишем здесь: ---> Отзывы и комментарии о схеме

Новые благодарочки в телеграм довольных пользователей:
скриншот   скриншот   скриншот   скриншот   скриншот
    Дорогой пользователь! Огромная просьба, поблагодарите релизера, оцените раздачу и оставьте свои комментарий, если Вы скачали Черная полоса через торрент бесплатно! Внесите свою лепту в развитие PiratBit!
    Комментировать посты могут только пользователи прошедшие не сложную регистрацию
    Показать сообщения:    

    Черная полоса через торрент
    Скачать бесплатно Черная полоса
    Черная полоса скачать торрент
    Черная полоса смотреть онлайн
    Cкачать фильм Черная полоса бесплатно
    Черная полоса скачать торрент в хорошем качестве
    Черная полоса смотреть онлайн бесплатно в хорошем качестве


    Вы не можете начинать темы
    Вы не можете отвечать на сообщения
    Вы не можете редактировать свои сообщения
    Вы не можете удалять свои сообщения
    Вы не можете голосовать в опросах
    Вы не можете прикреплять файлы к сообщениям
    Вы можете скачивать файлы