Ребята, если до конца года каждый наш пользователь пожертвует хотя бы 10 рублей, нам хватит денег оплатить все наши расходы.

iTunes

Хэллоуин

iTunes

venom

iTunes

Вы умрете, или мы вернем вам деньги

iTunes

iTunes

Тайна дома с часами

iTunes

Ничего хорошего в отеле «Эль рояль»

1080p

Хит недели

Лицензия

Агент Джонни Инглиш 3.0

ИГРА 18+

pack

RePack

Battlefield V

RePack

Assassins Creed: Odyssey
pack

Проголосуй

Лучший релизер 2018

RePack

Darksiders 3

iTunes 4K

venom Хит недели

RePack

fifa19

!!Акция!!

Alien_RageХит недели

RePack

NEED FOR SPEED™ PAYBACK

SATRip

9 сезон

Бесстыжие 9 сезон

Все сериалы

все сериалы на PB.wtf

iTunes

Мэнди

RePack

FAR CRY 5
  

Самая страшная ночь в твоей жизни / Scariest Night of Your Life (Джефф Бразертон) [2018, Ужасы, WEB-DL 720p] MVO ["Синема УС"]

Самая страшная ночь в твоей жизни через торрент

Раздают: 4 [ 0 KB/s ]
Размер: 3.04 GB | Добавлен: 8 д. назад | Торрент скачан:26 раз
Скачать  

09-01-2019 11:35 Самая страшная ночь в твоей жизни Скачать торрент  

Самая страшная ночь в твоей жизни / Scariest Night of Your Life Год выпуска: 2018
Страна: США
Жанр: Ужасы
Продолжительность: 01:23:47
Перевод: Любительский (многоголосый) | "Синема УС"
Субтитры: отсутствуют

Режиссер: Джефф Бразертон

rating

В ролях:

Патрик Луис, Эмили Холл, Молли Догерти, Татьяна Туран, Иман Каррам, Тайлер Томас Мур, Ян Мэттьюс, Райан Зиммер, Джонни Робиш, Эван Камачо

Описание:

Студенты колледжа решили отметить Хэллоуин прохождением квеста в укромном местечке. Там они обнаружили, что самым сердцем страшного квеста являются люди, которые там работают.

Качество: WEB-DL 720p
Формат: MKV

Видео: h.264,4 810 kb/s, 1280x720
Аудио#1: Русский, (AC3, 2 ch, 384 Кбит/с)
скриншот  скриншот  скриншот  

Общее
Уникальный идентификатор : 229935425428512908946492161919588257797 (0xACFBF3BD88DE52EF89B4062AD4105005)
Полное имя : E:\торреннты\Scariest.Night.of.Your.Life.2018.P.WEB-DL.72Op_KOSHARA.mkv
Формат : Matroska
Версия формата : Version 2
Размер файла : 3,04 Гбайт
Продолжительность : 1 ч. 23 м.
Режим общего битрейта : Переменный
Общий поток : 5196 Кбит/сек
Дата кодирования : UTC 2019-01-07 15:23:52
Программа кодирования : mkvmerge v8.3.0 ('Over the Horizon') 64bit
Библиотека кодирования : libebml v1.3.1 + libmatroska v1.4.2

Видео
Идентификатор : 1
Формат : AVC
Формат/Информация : Advanced Video Codec
Профиль формата : High@L4.1
Настройки формата : CABAC / 4 Ref Frames
Параметр CABAC формата : Да
Параметр RefFrames формата : 4 кадра
Идентификатор кодека : V_MPEG4/ISO/AVC
Продолжительность : 1 ч. 23 м.
Вид битрейта : Переменный
Битрейт : 4810 Кбит/сек
Максимальный битрейт : 5500 Кбит/сек
Ширина : 1280 пикселей
Высота : 720 пикселей
Соотношение сторон : 16:9
Режим частоты кадров : Постоянный
Частота кадров : 23,976 (24000/1001) кадра/сек
Стандарт вещания : Component
Цветовое пространство : YUV
Субдискретизация насыщенности : 4:2:0
Битовая глубина : 8 бит
Тип развёртки : Прогрессивная
Бит/(Пиксели*Кадры) : 0.213
Размер потока : 2,76 Гбайт (91%)
Default : Да
Forced : Нет
Цветовой диапазон : Limited
Основные цвета : BT.709
Характеристики трансфера : BT.709
Коэффициенты матрицы : BT.709

Аудио
Идентификатор : 2
Формат : AC-3
Формат/Информация : Audio Coding 3
Идентификатор кодека : A_AC3
Продолжительность : 1 ч. 23 м.
Вид битрейта : Постоянный
Битрейт : 384 Кбит/сек
Каналы : 2 канала
Расположение каналов : Front: L R
Частота : 48,0 КГц
Частота кадров : 31,250 кадров/сек (1536 SPF)
Битовая глубина : 16 бит
Метод сжатия : С потерями
Размер потока : 230 Мбайт (7%)
ServiceKind/String : Complete Main
Default : Да
Forced : Нет




Скачать Самая страшная ночь в твоей жизни через торрент https://a.radikal.ru/a26/1901/8b/1bbe4e43ade4.jpg Скачать фильм Самая страшная ночь в твоей жизни через торрент бесплантно в хорошем качестве Описание: Студенты колледжа решили отметить Хэллоуин прохождением квеста в укромном местечке. Там они обнаружили, что самым сердцем ... 10 10 2
Торрент: Зарегистрирован [2019-01-09 11:35] · скачан: 26 раз
Статус: T временная
Размер: 3.04 GB
Как cкачать? Как скачать Самая страшная ночь в твоей жизни через торрент | qTorrent

% Раздел Тема Автор DL S | L
T Фильмы (мультфильмы) cо спонсором показа (Новинки AVI/MKV) [ 1.37 GB ] Самая страшная ночь в твоей жизни / Scariest Night of Your Life [2018 WEB-DLRip] MVO ["Синема УС"] bober100 Скачать
4 | 0


>> Регистрируемся здесь <<






Отзывы и комментарии о схеме читаем и пишем здесь: ---> Отзывы и комментарии о схеме

Новые благодарочки в телеграм довольных пользователей:
скриншот   скриншот   скриншот   скриншот   скриншот

09-01-2019 12:31 Самая страшная ночь в твоей жизни Скачать торрент  

Такую шляпу смотреть да еще с рекламой????Азино..вы вооще отупели???



13-01-2019 11:33 Самая страшная ночь в твоей жизни Скачать торрент  

шляпа шляпная..... за раздачу спс



14-01-2019 17:49 Самая страшная ночь в твоей жизни Скачать торрент  

такая хуета!))))



    Дорогой пользователь! Огромная просьба, поблагодарите релизера, оцените раздачу и оставьте свои комментарий, если Вы скачали Самая страшная ночь в твоей жизни через торрент бесплатно! Внесите свою лепту в развитие PiratBit!
    Комментировать посты могут только пользователи прошедшие не сложную регистрацию
    Показать сообщения:    

    Самая страшная ночь в твоей жизни через торрент
    Скачать бесплатно Самая страшная ночь в твоей жизни
    Самая страшная ночь в твоей жизни скачать торрент
    Самая страшная ночь в твоей жизни смотреть онлайн
    Cкачать фильм Самая страшная ночь в твоей жизни бесплатно
    Самая страшная ночь в твоей жизни скачать торрент в хорошем качестве
    Самая страшная ночь в твоей жизни смотреть онлайн бесплатно в хорошем качестве


    Вы не можете начинать темы
    Вы не можете отвечать на сообщения
    Вы не можете редактировать свои сообщения
    Вы не можете удалять свои сообщения
    Вы не можете голосовать в опросах
    Вы не можете прикреплять файлы к сообщениям
    Вы можете скачивать файлы