2 сезон

iTunes

MVO

1

2 сезон

iTunes

iTunes

1 сезон

RePack

30

Новинка

ВАЖНО

ИГРА 18+

pack

RePack

MK11
pack

Легкие деньги

RePack

jed

RePack

fifa19

RePack

RDR2

RePack

NEED FOR SPEED™ PAYBACK

4 сезон

9 сезон

Бесстыжие 9 сезон

Все сериалы

все сериалы на PB.wtf

RePack

FAR CRY 5

Anonymous, добрый день, мы не успеваем собрать деньги на оплату серверов за декабрь и январь, помогите нам пожалуйста в это трудное время. В качестве благодарности мы отключим Вам всю рекламу на сайте (укажите свой ник в строку Ваше имя)!

×
  
Magnet ссылка

Тихое место / A Quiet Place (Джон Красински) [2018 г., Ужасы, триллер, драма, UHD BDRemux 2160p] DUB [Dolby Vision TV] [Лицензия] pb.wtf

Тихое место через торрент pb.wtf

Размер: 47 GB | Добавлен: 2 года назад | Торрент скачан:46 раз
Скачать  

09-01-2019 11:38 Тихое место Скачать торрент  

Тихое место / A Quiet Place«Тсссс! Если хочешь выжить - не издавай ни звука» Год выпуска: 2018
Страна: США
Жанр: Ужасы, триллер, драма
Продолжительность: 01:30:14
Перевод: Дублированный
Режиссер: Джон Красински
В ролях:

Эмили Блант (Evelyn Abbott), Джон Красински (Lee Abbott), Милли Симмондс (Regan Abbott), Ноа Джуп (Marcus Abbott), Кейд Вудворд (Beau Abbott), Леон Рассом (Man in the Woods), Дорис МакКарти (Woman in the Woods, в титрах не указана), Рода Пелл (Old Man's Dead Wife, в титрах не указана)
Описание:
История одной семьи, которая проживает в небольшой уединённой ферме в далёкой американской глубинке. У главных героев есть двое детей. Казалось бы, жизнь этих людей совершенно не отличается от жизни других таких семей. Но главные герои живут в доме, который наполнен ужасными монстрами, реагирующими на любой звук. Герои разучили целый комплекс специальных жестов, которые помогают им общаться друг с другом, не издавая ни единого звука. Кроме того, каждый из членов семьи должен очень тихо передвигаться по всей территории дома, чтобы опасные существа не заметили их. Однако дом, где живут маленькие дети, не может быть самым тихим местом на земле.
Рейтинг:

MPAA: PG-13 - Детям до 13 лет просмотр не желателен
Качество: UHD BDRemux 2160p | Dolby Vision TV
Формат: MP4
Видео: HEVC, 66284 Kбит/с, 3840x2160, 23.976 Кадр/с
Аудио: AC3, 48 kHz, 6 ch, ~640.00 kbps avg | русский | Blu-ray EUR
Данный вид релизов (контейнер MP4) предназначен для встроенного в ТВ (соответственно, с поддержкой DV) плеер.
Т.Е. Можно использовать как USB flash/HDD, так и DLNA / Plex - подобные сервисы/программы. дополнительный-внешний плеер не обязателен.

Внимание!
На моделях LG 2016 возможны сюрпризы "через раз", 2017-2018 должно идти без сюрпризов )
Общее
Полное имя : A.Quiet.Place.2018.UHD.BDRemux.2160p.DV.IVA.RUS.ExKinoRay.mp4
Формат : MPEG-4
Профиль формата : Base Media / Version 2
Идентификатор кодека : mp42 (mp42/iso6/isom/msdh/dby1)
Размер файла : 47,0 Гбайт
Продолжительность : 1 ч. 30 м.
Общий поток : 74,6 Мбит/сек
Дата кодирования : UTC 2019-01-06 01:31:36
Дата пометки : UTC 2019-01-06 01:31:36

Видео #1
Идентификатор : 1
Формат : HEVC
Формат/Информация : High Efficiency Video Coding
Коммерческое название : HDR10
Профиль формата : Main 10@L5.1@High
Идентификатор кодека : hev1
Идентификатор кодека/Информация : High Efficiency Video Coding
Продолжительность : 1 ч. 30 м.
Битрейт : 66,3 Мбит/сек
Ширина : 3840 пикселей
Высота : 2160 пикселей
Соотношение сторон : 16:9
Режим частоты кадров : Постоянный
Частота кадров : 23,976 (24000/1001) кадра/сек
Цветовое пространство : YUV
Субдискретизация насыщенности : 4:2:0 (Type 2)
Битовая глубина : 10 бит
Бит/(Пиксели*Кадры) : 0.333
Размер потока : 41,8 Гбайт (89%)
Default : Нет
Дата кодирования : UTC 2019-01-06 01:31:36
Дата пометки : UTC 2019-01-06 01:31:36
Цветовой диапазон : Limited
Основные цвета : BT.2020
Характеристики трансфера : PQ
Коэффициенты матрицы : BT.2020 non-constant
MasteringDisplay_ColorPrimaries : Display P3
MasteringDisplay_Luminance : min: 0.0001 cd/m2, max: 1000 cd/m2
Codec configuration box : hvcC

Видео #2
Идентификатор : 2
Формат : HEVC
Формат/Информация : High Efficiency Video Coding
Коммерческое название : HDR10
Профиль формата : Main 10@L5.1@High
Dolby Vision : 1.0, dvhe.07.06, EL+RPU
Идентификатор кодека : dvhe
Идентификатор кодека/Информация : High Efficiency Video Coding with Dolby Vision
Продолжительность : 1 ч. 30 м.
Битрейт : 7636 Кбит/сек
Ширина : 1920 пикселей
Высота : 1080 пикселей
Соотношение сторон : 16:9
Режим частоты кадров : Постоянный
Частота кадров : 23,976 (24000/1001) кадра/сек
Цветовое пространство : YUV
Субдискретизация насыщенности : 4:2:0 (Type 2)
Битовая глубина : 10 бит
Бит/(Пиксели*Кадры) : 0.154
Размер потока : 4,81 Гбайт (10%)
Default : Нет
Дата кодирования : UTC 2019-01-06 01:31:36
Дата пометки : UTC 2019-01-06 01:31:36
Цветовой диапазон : Limited
Основные цвета : BT.2020
Характеристики трансфера : PQ
Коэффициенты матрицы : BT.2020 non-constant
MasteringDisplay_ColorPrimaries : Display P3
MasteringDisplay_Luminance : min: 0.0001 cd/m2, max: 1000 cd/m2
Codec configuration box : hvcC+dvcC

Аудио
Идентификатор : 3
Формат : AC-3
Формат/Информация : Audio Coding 3
Коммерческое название : Dolby Digital
Идентификатор кодека : ac-3
Продолжительность : 1 ч. 30 м.
Вид битрейта : Постоянный
Битрейт : 640 Кбит/сек
Каналы : 6 каналов
Channel layout : L R C LFE Ls Rs
Частота : 48,0 КГц
Частота кадров : 31,250 кадров/сек (1536 SPF)
Битовая глубина : 16 бит
Метод сжатия : С потерями
Размер потока : 413 Мбайт (1%)
Язык : Russian
ServiceKind/String : Complete Main
Default : Нет
Дата кодирования : UTC 2019-01-06 01:31:36
Дата пометки : UTC 2019-01-06 01:31:36
pb.wtf



Скачать Тихое место через торрент https://b.radikal.ru/b11/1807/be/d9378d6da850.jpg Скачать фильм Тихое место через торрент бесплантно в хорошем качестве Описание: История одной семьи, которая проживает в небольшой уединённой ферме в далёкой американской глубинке. У главных героев есть двое ... 10 10 4
Info! Золотая раздача, скачанное не засчитывается.
Торрент: Зарегистрирован [2019-01-09 11:38] · скачан: 46 раз
Статус: √ проверено
Размер: 47 GB
Как cкачать? Как скачать Тихое место через торрент | UTorrent

% Раздел Тема Автор DL S | L
Фильмы с авторской озвучкой [ 1.46 GB ] Тихое место / A Quiet Place [2018 BDRip] [AVO] killermax2013 Скачать
2 | 0
Фильмы [HD 720p, 1080p] (Хороший звук DUB, MVO) [ 5.14 GB ] Тихое место / A Quiet Place [2018 BDRip 1080p HEVC ()] Мичман37 Скачать
1 | 0
Фильмы 2018 [DVDrip, WEB-DLRip, HDrip] (DUB, MVO) [ 1.45 GB ] Тихое место / A Quiet Place [2018 BDRip-AVC] DUB [] - ExKinoRay Enigma2010 Скачать
8 | 0
Ultra HD (UHD: 2K, 4K, 8K) — видео сверхвысокой чёткости [ 16.71 GB ] Тихое место / A Quiet Place [2018 UHD BDRip 2160p] DUB + MVO [HDRezka Studio] sheker187 Скачать
1 | 0
Ultra HD (UHD: 2K, 4K, 8K) — видео сверхвысокой чёткости [ 53.02 GB ] Тихое место / A Quiet Place [2018 UHD BDRemux 2160p] [HDR: Dolby Vision + HDR10] DUB [] bober100 Скачать
1 | 0
Фильмы 2018 [DVDrip, WEB-DLRip, HDrip] (DUB, MVO) [ 1.68 GB ] Тихое место / A Quiet Place [2018 BDRip-AVC] MVO [HDrezka Studio] +DUB [] bober100 Скачать
1 | 0
Фильмы 2018 [DVDrip, WEB-DLRip, HDrip] (DUB, MVO) [ 747 MB ] Тихое место / A Quiet Place [2018 BDRip] DUB [ BD EUR] bober100 Скачать
1 | 0

28-11-2019 20:33  

Отключить всю рекламу на сайте

    Дорогой пользователь! Огромная просьба, поблагодарите релизера, оцените раздачу и оставьте свои комментарий, если Вы скачали Тихое место через торрент бесплатно! Внесите свою лепту в развитие PiratBit!
    Комментировать посты могут только пользователи прошедшие не сложную регистрацию
    Показать сообщения:    

    Тихое место через торрент
    Скачать бесплатно Тихое место
    Тихое место скачать торрент
    Тихое место смотреть онлайн
    Cкачать фильм Тихое место бесплатно
    Тихое место скачать торрент в хорошем качестве
    Тихое место смотреть онлайн бесплатно в хорошем качестве


    Вы не можете начинать темы
    Вы не можете отвечать на сообщения
    Вы не можете редактировать свои сообщения
    Вы не можете удалять свои сообщения
    Вы не можете голосовать в опросах
    Вы не можете прикреплять файлы к сообщениям
    Вы можете скачивать файлы