Всегда рабочее зеркало без VPN и Proxy просто перед .vidak.icu напиши любое слово или цифру, Пример http://7ihz.vidak.icu

Лицензия

MVO

1 сезон

1

1 сезон

iTunes

1 сезон

13

1 сезон

Deluxe

pack

Рекомендуем

Repack

30

ВАЖНО

RePack

MK11

RePack

jed

RePack

fifa19

RePack

RDR2

RePack

NEED FOR SPEED™ PAYBACK

Кинопоиск HD

6 сезон

 Острые козырьки 6 сезон

Все сериалы

все сериалы на PB.wtf

RePack

FAR CRY 5
  
Magnet ссылка

Чёрный клановец / BlacKkKlansman (Спайк Ли) [2018, драма, комедия, криминал, биография, UHD BDRemux 2160p] [Dolby Vision TV] DUB [iTunes] pb.wtf

Чёрный клановец через торрент pb.wtf

Размер: 71.86 GB | Добавлен: 3 года 7 мес. назад | Торрент скачан:10 раз
Смотреть онлайн Чёрный клановец | Скачать    Ребята, помогите собрать деньги на оплату серверов!!!

09-01-2019 11:41 Чёрный клановец Скачать торрент  

Чёрный клановец / BlacKkKlansman
«В сердце ненависти» Год выпуска: 2018
Страна: США
Жанр: драма, комедия, криминал, биография
Продолжительность: 02:14:49
Перевод: Дублированный | iTunes
Субтитры: отсутствуют

Режиссер: Спайк Ли

rating

В ролях:

Алек Болдуин, Джон Дэвид Вашингтон, Исайя Уитлок мл., Роберт Джон Бёрк, Брайан Тарантина, Артур Дж. Наскарелла, Кен Гарито, Фред Уэллер, Адам Драйвер, Майкл Бушеми

Описание:

Внедриться в Ку-Клукс-Клан - задача не из легких, особенно если ты чернокожий. Но целеустремленного полицейского из Колорадо такие мелочи не смущают. Вместе с напарником-евреем он вступает в неравный бой с опаснейшими противниками.

Качество: UHD BDRemux 2160p | Dolby Vision TV
Формат: MP4

Видео: MPEG-H HEVC HDR Video, 3840x2160, 68600 Кбит/c, 23.976 Кадр/с
Аудио: AC3, 48 kHz, 6 ch, ~384.00 kbps avg | русский | iTunes
Данный вид релизов (контейнер MP4) предназначен для встроенного в ТВ (соответственно, с поддержкой DV) плеер.
Т.Е. Можно использовать как USB flash/HDD, так и DLNA / Plex - подобные сервисы/программы. дополнительный-внешний плеер не обязателен.

Внимание!
На моделях LG 2016 возможны сюрпризы "через раз", 2017-2018 должно идти без сюрпризов )
скриншот  скриншот  скриншот  скриншот  скриншот  

Общее
Полное имя : BlacKkKlansman.2018.UHD.BDRemux.2160p.DV.IVA.RUS.ExKinoRay.mp4
Формат : MPEG-4
Профиль формата : Base Media / Version 2
Идентификатор кодека : mp42 (mp42/iso6/isom/msdh/dby1)
Размер файла : 71,9 Гбайт
Продолжительность : 2 ч. 14 м.
Общий поток : 76,3 Мбит/сек
Дата кодирования : UTC 2019-01-06 06:24:31
Дата пометки : UTC 2019-01-06 06:24:31

Видео #1
Идентификатор : 1
Формат : HEVC
Формат/Информация : High Efficiency Video Coding
Коммерческое название : HDR10
Профиль формата : Main [email protected]@High
Идентификатор кодека : hev1
Идентификатор кодека/Информация : High Efficiency Video Coding
Продолжительность : 2 ч. 14 м.
Битрейт : 68,6 Мбит/сек
Ширина : 3840 пикселей
Высота : 2160 пикселей
Соотношение сторон : 16:9
Режим частоты кадров : Постоянный
Частота кадров : 23,976 (24000/1001) кадра/сек
Цветовое пространство : YUV
Субдискретизация насыщенности : 4:2:0 (Type 2)
Битовая глубина : 10 бит
Бит/(Пиксели*Кадры) : 0.345
Размер потока : 64,6 Гбайт (90%)
Default : Нет
Дата кодирования : UTC 2019-01-06 06:24:31
Дата пометки : UTC 2019-01-06 06:24:31
Цветовой диапазон : Limited
Основные цвета : BT.2020
Характеристики трансфера : PQ
Коэффициенты матрицы : BT.2020 non-constant
MasteringDisplay_ColorPrimaries : Display P3
MasteringDisplay_Luminance : min: 0.0050 cd/m2, max: 1000 cd/m2
MaxCLL : 552 cd/m2
MaxFALL : 132 cd/m2
Codec configuration box : hvcC

Видео #2
Идентификатор : 2
Формат : HEVC
Формат/Информация : High Efficiency Video Coding
Коммерческое название : HDR10
Профиль формата : Main [email protected]@High
Dolby Vision : 1.0, dvhe.07.06, EL+RPU
Идентификатор кодека : dvhe
Идентификатор кодека/Информация : High Efficiency Video Coding with Dolby Vision
Продолжительность : 2 ч. 14 м.
Битрейт : 7339 Кбит/сек
Ширина : 1920 пикселей
Высота : 1080 пикселей
Соотношение сторон : 16:9
Режим частоты кадров : Постоянный
Частота кадров : 23,976 (24000/1001) кадра/сек
Цветовое пространство : YUV
Субдискретизация насыщенности : 4:2:0 (Type 2)
Битовая глубина : 10 бит
Бит/(Пиксели*Кадры) : 0.148
Размер потока : 6,91 Гбайт (10%)
Default : Нет
Дата кодирования : UTC 2019-01-06 06:24:31
Дата пометки : UTC 2019-01-06 06:24:31
Цветовой диапазон : Limited
Основные цвета : BT.2020
Характеристики трансфера : PQ
Коэффициенты матрицы : BT.2020 non-constant
MasteringDisplay_ColorPrimaries : Display P3
MasteringDisplay_Luminance : min: 0.0050 cd/m2, max: 1000 cd/m2
Codec configuration box : hvcC+dvcC

Аудио
Идентификатор : 3
Формат : AC-3
Формат/Информация : Audio Coding 3
Коммерческое название : Dolby Digital
Идентификатор кодека : ac-3
Продолжительность : 2 ч. 14 м.
Вид битрейта : Постоянный
Битрейт : 384 Кбит/сек
Каналы : 6 каналов
Channel layout : L R C LFE Ls Rs
Частота : 48,0 КГц
Частота кадров : 31,250 кадров/сек (1536 SPF)
Битовая глубина : 16 бит
Метод сжатия : С потерями
Размер потока : 370 Мбайт (1%)
Язык : Russian
ServiceKind/String : Complete Main
Default : Нет
Дата кодирования : UTC 2019-01-06 06:24:31
Дата пометки : UTC 2019-01-06 06:24:31

pb.wtf



Скачать Чёрный клановец через торрент http://img10.lostpic.net/2018/11/29/e171c3a3144bed50c77e6628b42b1284.jpg Скачать, смотреть онлайн Чёрный клановец бесплантно в хорошем качестве Описание: Внедриться в Ку-Клукс-Клан - задача не из легких, особенно если ты чернокожий. Но целеустремленного полицейского из Колорадо ... 10 10 2
Торрент: Зарегистрирован [2019-01-09 11:41] · скачан: 10 раз
Статус: √ проверено
Размер: 71.86 GB
Как cкачать? Как скачать Чёрный клановец через торрент | UTorrent

% Раздел Тема Автор DL S | L
Ultra HD (UHD: 2K, 4K, 8K) — видео сверхвысокой чёткости [ 69.7 GB ] Чёрный клановец / BlacKkKlansman [2018 биография UHD BDRemux 2160p] DUB [] + MVO [HDRezka Studio] sheker187 Скачать
1 | 0
Фильмы 2018 [DVDrip, WEB-DLRip, HDrip] (DUB, MVO) [ 2.19 GB ] Чёрный клановец / BlacKkKlansman [2018 биография BDRip] - [] Twi7ter Скачать
1 | 0
Ultra HD (UHD: 2K, 4K, 8K) — видео сверхвысокой чёткости [ 69.57 GB ] Чёрный клановец / BlacKkKlansman [2018 биография UHD BDRemux 2160p] DUB [] sheker187 Скачать
1 | 0
Ultra HD (UHD: 2K, 4K, 8K) — видео сверхвысокой чёткости [ 72.1 GB ] Чёрный клановец / BlacKkKlansman [2018 биография UHD BDRemux 2160p] DUB [] [Dolby Vision TV] sheker187 Скачать
1 | 0
Ultra HD (UHD: 2K, 4K, 8K) — видео сверхвысокой чёткости [ 86.83 GB ] Чёрный клановец / BlacKkKlansman [2018 биография UHD Blu-Ray 2160p] DUB [] [HDR + Dolby Vision] sheker187 Скачать
1 | 0
Фильмы 2018 [DVDrip, WEB-DLRip, HDrip] (DUB, MVO) [ 2.11 GB ] Чёрный клановец / BlacKkKlansman [2018 биография BDRip-AVC] DUB [] sheker187 Скачать
1 | 0
Фильмы (Blu-ray, BD-Remux, HDDVD) [ 35.01 GB ] Чёрный клановец / BlacKkKlansman [2018 биография BDRemux 1080p] DUB [] + MVO [HDRezka Studio] sheker187 Скачать
1 | 0

28-11-2019 20:33  

Отключить вcю реклaмy на сайте

    Дорогой пользователь! Огромная просьба, поблагодарите релизера, оцените раздачу и оставьте свои комментарий, если Вы скачали Чёрный клановец через торрент бесплатно!
    Комментировать посты могут только пользователи прошедшие не сложную регистрацию
    Показать сообщения:    

    Чёрный клановец через торрент
    Скачать бесплатно Чёрный клановец
    Чёрный клановец скачать торрент
    Чёрный клановец смотреть онлайн
    Cкачать фильм Чёрный клановец бесплатно
    Чёрный клановец скачать торрент в хорошем качестве
    Чёрный клановец смотреть онлайн бесплатно в хорошем качестве


    Вы не можете начинать темы
    Вы не можете отвечать на сообщения
    Вы не можете редактировать свои сообщения
    Вы не можете удалять свои сообщения
    Вы не можете голосовать в опросах
    Вы не можете прикреплять файлы к сообщениям
    Вы можете скачивать файлы