Ссылка на приватное зеркало всего за 1$. Внимание количество ограничено!!!

OK

1+1

iTunes

мы

OK

1

WEB-DLRip

Джокер

Пифагор

Ведьмак / The Witcher сериал

iTunes

ПШазам

ОК

Оно 2

iTunes

30
pack

Вам бонус

ВАЖНО

!!Акция!!

Alien_RageХит недели

RePack

Resident Evil 21

ИГРА 18+

pack

RePack

jed

RePack

fifa19

RePack

Assassins Creed: Odyssey

RePack

NEED FOR SPEED™ PAYBACK

4 сезон

9 сезон

Бесстыжие 9 сезон

Все сериалы

все сериалы на PB.wtf

RePack

FAR CRY 5
  

А дома лучше / A casa tutti bene (Габриэле Муччино) [2018, драма, мелодрама, комедия, BDRip 720p] MVO ["Синема УС"] pb.wtf

А дома лучше через торрент pb.wtf

Размер: 5.39 GB | Добавлен: 1 год назад | Торрент скачан:65 раз
Скачать  

09-01-2019 12:05 А дома лучше Скачать торрент  

А дома лучше / A casa tutti beneГод выпуска: 2018
Страна: Италия
Жанр: драма, мелодрама, комедия
Продолжительность: 01:48:25
Перевод: Любительский (многоголосый) | "Синема УС"
Субтитры: отсутствуют

Режиссер: Габриэле Муччино

rating

В ролях:

Стефано Аккорси, Каролина Крешентини, Елена Куччи, Пьерфранческо Фавино, Клаудия Джерини, Массимо Гини, Сабрина Импаччииаторе, Джанфеличе Импарато, Ивано Марескотти, Джулия Микелини

Описание:

Большая семья встречается, чтобы вместе отпраздновать 50 лет совместной жизни бабушки и дедушки, на огромной вилле на острове, на который они переехали. Из-за погодных условий они не могут покинуть остров, и тогда всей их чудесной семейной идиллии приходит конец...

Качество: BDRip 720p
Формат: MKV

Видео: h.264,6 665 Кбит/с, 1280x532
Аудио#1: Русский (AC3, 2 ch, 448 Кбит/с)
скриншот  скриншот  скриншот  

Общее
Уникальный идентификатор : 205743890642351530277416473546618972155 (0x9AC8D4FD0D977A368E245D4D020627FB)
Полное имя : E:\торреннты\Zuhause.ist.es.am.schoensten.2018.P.BDRip.72Op.mkv
Формат : Matroska
Версия формата : Version 2
Размер файла : 5,39 Гбайт
Продолжительность : 1 ч. 48 м.
Режим общего битрейта : Переменный
Общий поток : 7115 Кбит/сек
Дата кодирования : UTC 2019-01-07 11:26:07
Программа кодирования : mkvmerge v8.3.0 ('Over the Horizon') 64bit
Библиотека кодирования : libebml v1.3.1 + libmatroska v1.4.2

Видео
Идентификатор : 1
Формат : AVC
Формат/Информация : Advanced Video Codec
Профиль формата : High@L4.1
Настройки формата : CABAC / 4 Ref Frames
Параметр CABAC формата : Да
Параметр RefFrames формата : 4 кадра
Идентификатор кодека : V_MPEG4/ISO/AVC
Продолжительность : 1 ч. 48 м.
Вид битрейта : Переменный
Битрейт : 6665 Кбит/сек
Максимальный битрейт : 7500 Кбит/сек
Ширина : 1280 пикселей
Высота : 532 пикселя
Соотношение сторон : 2,40:1
Режим частоты кадров : Постоянный
Частота кадров : 23,976 (24000/1001) кадра/сек
Стандарт вещания : Component
Цветовое пространство : YUV
Субдискретизация насыщенности : 4:2:0
Битовая глубина : 8 бит
Тип развёртки : Прогрессивная
Бит/(Пиксели*Кадры) : 0.400
Размер потока : 4,94 Гбайт (92%)
Default : Да
Forced : Нет
Цветовой диапазон : Limited
Основные цвета : BT.709
Характеристики трансфера : BT.709
Коэффициенты матрицы : BT.709

Аудио
Идентификатор : 2
Формат : AC-3
Формат/Информация : Audio Coding 3
Идентификатор кодека : A_AC3
Продолжительность : 1 ч. 48 м.
Вид битрейта : Постоянный
Битрейт : 448 Кбит/сек
Каналы : 2 канала
Расположение каналов : Front: L R
Частота : 48,0 КГц
Частота кадров : 31,250 кадров/сек (1536 SPF)
Битовая глубина : 16 бит
Метод сжатия : С потерями
Размер потока : 347 Мбайт (6%)
ServiceKind/String : Complete Main
Default : Да
Forced : Нет

pb.wtf



Скачать А дома лучше через торрент https://b.radikal.ru/b03/1901/3d/1214a60db30b.jpg Скачать фильм А дома лучше через торрент бесплантно в хорошем качестве Описание: Большая семья встречается, чтобы вместе отпраздновать 50 лет совместной жизни бабушки и дедушки, на огромной вилле на острове, на ... 10 10 5
Торрент: Зарегистрирован [2019-01-09 12:05] · скачан: 65 раз
Статус: # сомнительно
Размер: 5.39 GB
Как cкачать? Как скачать А дома лучше через торрент | qTorrent

% Раздел Тема Автор DL S | L
T Фильмы (мультфильмы) cо спонсором показа (Новинки AVI/MKV) [ 1.37 GB ] А дома лучше / A casa tutti bene [2018 HDRip] MVO ["Синема УС"] bober100 Скачать
2 | 0

28-11-2019 20:33  

Отключить всю рекламу на сайте

    Дорогой пользователь! Огромная просьба, поблагодарите релизера, оцените раздачу и оставьте свои комментарий, если Вы скачали А дома лучше через торрент бесплатно! Внесите свою лепту в развитие PiratBit!
    Комментировать посты могут только пользователи прошедшие не сложную регистрацию
    Показать сообщения:    

    А дома лучше через торрент
    Скачать бесплатно А дома лучше
    А дома лучше скачать торрент
    А дома лучше смотреть онлайн
    Cкачать фильм А дома лучше бесплатно
    А дома лучше скачать торрент в хорошем качестве
    А дома лучше смотреть онлайн бесплатно в хорошем качестве


    Вы не можете начинать темы
    Вы не можете отвечать на сообщения
    Вы не можете редактировать свои сообщения
    Вы не можете удалять свои сообщения
    Вы не можете голосовать в опросах
    Вы не можете прикреплять файлы к сообщениям
    Вы можете скачивать файлы