Ребята, если до конца года каждый наш пользователь пожертвует хотя бы 10 рублей, нам хватит денег оплатить все наши расходы.

iTunes

Хэллоуин

iTunes

venom

iTunes

Вы умрете, или мы вернем вам деньги

iTunes

iTunes

Тайна дома с часами

iTunes

Ничего хорошего в отеле «Эль рояль»

1080p

Хит недели

Лицензия

Агент Джонни Инглиш 3.0

ИГРА 18+

pack

RePack

Battlefield V

RePack

Assassins Creed: Odyssey
pack

Проголосуй

Лучший релизер 2018

RePack

Darksiders 3

iTunes 4K

venom Хит недели

RePack

fifa19

!!Акция!!

Alien_RageХит недели

RePack

NEED FOR SPEED™ PAYBACK

SATRip

9 сезон

Бесстыжие 9 сезон

Все сериалы

все сериалы на PB.wtf

iTunes

Мэнди

RePack

FAR CRY 5
  

Ваша ненависть / The Hate U Give (Джордж Тиллман мл.) [2018 г., Драма, криминал, WEBRip, Любительский (многоголосый)(Синема УС)]

Ваша ненависть через торрент

Раздают: 7 [ 0 KB/s ]
Размер: 2.05 GB | Добавлен: 8 д. назад | Торрент скачан:65 раз
Скачать  

09-01-2019 13:19 Ваша ненависть Скачать торрент  

Ваша ненависть / The Hate U Give
Год выпуска: 2018
Страна: США
Жанр: Драма, криминал
Продолжительность: 02:16:16
Перевод: Любительский (многоголосый)(Синема УС)
Субтитры: Отсутствуют

Режиссер: Джордж Тиллман мл.

Премьера в мире: 7 сентября 2018

rating

В ролях: Амандла Стенберг, Реджина Холл, Расселл Хорнсби, Энтони Маки, Исса Рэй, Коммон, Элджи Смит, Сабрина Карпентер, Кей Джей Апа, Доминик Фишбэк

Описание: Девушка-подросток из чёрного гетто Старр мечется между двумя мирами — своим домом в неспокойном бедном районе и благополучной школой, где она учится вместе с белыми детьми. Положение Старр осложняется, когда она становится единственной свидетельницей того, как полицейский выстрелил в её безоружного друга, подозреваемого в наркоторговле.

Доп. информация: Присутствуют вставки видео, голосовой и текстовой рекламы

Качество: WEBRip
Формат: AVI
Видео кодек: XviD
Аудио кодек: AC3
Видео: Xvid, 720x304 (2,35:1), ~1760 Kbps
Аудио#1: AC3, 2 ch, 384 Kbps
скриншот   скриншот   скриншот   скриншот  

Общее
Полное имя : G:\The.Hate.U.Give (2018).avi
Формат : AVI
Формат/Информация : Audio Video Interleave
Профиль формата : OpenDML
Размер файла : 2,05 Гбайт
Продолжительность : 2 ч. 16 м.
Общий поток : 2157 Кбит/сек
Программа кодирования : VirtualDubMod 1.5.10.2 (build 2540/release)
Библиотека кодирования : VirtualDubMod build 2540/release

Видео
Идентификатор : 0
Формат : MPEG-4 Visual
Профиль формата : Advanced Simple@L5
Настройки формата : BVOP2 / Custom Matrix
Параметр BVOP формата : 2
Параметр QPel формата : Нет
Параметр GMC формата : Без точки перехода
Параметр матрицы формата : Выборочная
Идентификатор кодека : XVID
Идентификатор кодека/Подсказка : XviD
Продолжительность : 2 ч. 16 м.
Битрейт : 1761 Кбит/сек
Ширина : 720 пикселей
Высота : 304 пикселя
Соотношение сторон : 2,35:1
Частота кадров : 23,976 (24000/1001) кадра/сек
Цветовое пространство : YUV
Субдискретизация насыщенности : 4:2:0
Битовая глубина : 8 бит
Тип развёртки : Прогрессивная
Метод сжатия : С потерями
Бит/(Пиксели*Кадры) : 0.336
Размер потока : 1,68 Гбайт (82%)
Библиотека кодирования : XviD 1.2.1 (UTC 2008-12-04)

Аудио
Идентификатор : 1
Формат : AC-3
Формат/Информация : Audio Coding 3
Коммерческое название : Dolby Digital
Идентификатор кодека : 2000
Продолжительность : 2 ч. 16 м.
Вид битрейта : Постоянный
Битрейт : 384 Кбит/сек
Каналы : 2 канала
Channel layout : L R
Частота : 48,0 КГц
Частота кадров : 31,250 кадров/сек (1536 SPF)
Битовая глубина : 16 бит
Метод сжатия : С потерями
Размер потока : 374 Мбайт (18%)
Выравнивание : Разделение по промежуткам
Продолжительность промежутка : 42 мс. (1,00 видеокадр)
Время предзагрузки промежутка : 500 мс.
ServiceKind/String : Complete Main




Скачать Ваша ненависть через торрент http://pic1.pb.wtf/images/12/i7gco.jpg Скачать фильм Ваша ненависть через торрент бесплантно в хорошем качестве Описание: Девушка-подросток из чёрного гетто Старр мечется между двумя мирами — своим домом в неспокойном бедном районе и благополучной ... 9.8 10 4
Торрент: Зарегистрирован [2019-01-09 13:19] · скачан: 65 раз
Статус: T временная
Размер: 2.05 GB
Как cкачать? Как скачать Ваша ненависть через торрент | qTorrent


>> Регистрируемся здесь <<






Отзывы и комментарии о схеме читаем и пишем здесь: ---> Отзывы и комментарии о схеме

Новые благодарочки в телеграм довольных пользователей:
скриншот   скриншот   скриншот   скриншот   скриншот

12-01-2019 21:00 Ваша ненависть Скачать торрент  

Цитата:

Ваша ненависть / The Hate U Give (Джордж Тиллман мл.) [2018 г., Драма, криминал, WEBRip, Любительский (многоголосый)(Синема УС)]

НУЫ



    Дорогой пользователь! Огромная просьба, поблагодарите релизера, оцените раздачу и оставьте свои комментарий, если Вы скачали Ваша ненависть через торрент бесплатно! Внесите свою лепту в развитие PiratBit!
    Комментировать посты могут только пользователи прошедшие не сложную регистрацию
    Показать сообщения:    

    Ваша ненависть через торрент
    Скачать бесплатно Ваша ненависть
    Ваша ненависть скачать торрент
    Ваша ненависть смотреть онлайн
    Cкачать фильм Ваша ненависть бесплатно
    Ваша ненависть скачать торрент в хорошем качестве
    Ваша ненависть смотреть онлайн бесплатно в хорошем качестве


    Вы не можете начинать темы
    Вы не можете отвечать на сообщения
    Вы не можете редактировать свои сообщения
    Вы не можете удалять свои сообщения
    Вы не можете голосовать в опросах
    Вы не можете прикреплять файлы к сообщениям
    Вы можете скачивать файлы