Всегда рабочее зеркало просто перед .vidak.icu напиши любое слово или цифру, Пример http://7yx.vidak.icu

>

7.4

iTunes

7.4

2 сезон

6.6

iTunes

1

7.4

2 сезон

7.2

iTunes

6.0

MVO

13

6.1

iTunes

8.3

Пиратка

30

ULTIMATE

pack

9.9

Лицензия

ВАЖНО

ИГРА 18+

pack

7.3

RePack

MK11

7.7

RePack

jed

7.8

RePack

fifa19

8.5

RePack

RDR2

RePack

NEED FOR SPEED™ PAYBACK

1 сезон

9 сезон

Бесстыжие 9 сезон

Все сериалы

все сериалы на PB.wtf

RePack

FAR CRY 5

Anonymous, добрый день, мы катастрофически не успеваем собрать деньги на оплату серверов, помогите нам пожалуйста 5,10,15р., для нас важна любая помощь . В качестве благодарности мы отключим Вам всю рекламу на сайте (укажите свой ник в строку Ваше имя)!

×
  
Magnet ссылка

Женщина-оса / The Wasp Woman (Jim Wynorsky) [1995, ужасы, фантастика, триллер, DVD5 (Custom)] 2x[AVO] (Визгунов, Володарский) + [VO] (Котов pb.wtf

Женщина-оса через торрент pb.wtf

Размер: 4.32 GB | Добавлен: 3 года назад | Торрент скачан:1 раз
Смотреть онлайн Женщина-оса | Скачать    Ребята, помогите собрать деньги на оплату серверов!!!

09-01-2019 13:49 Женщина-оса Скачать торрент  

Женщина-оса / The Wasp Woman Год выпуска: 1995
Страна: США
Студия: Concorde-New Horizons
Жанр: ужасы, фантастика, триллер
Продолжительность: 01:21:40
Перевод 1: Авторский (одноголосый закадровый) Сергей Визгунов
Перевод 2: Авторский (одноголосый закадровый) Леонид Володарский
Перевод 3: Любительский (одноголосый закадровый) Котов
Субтитры: нет

Режиссер: Jim Wynorsky / Джим Уайнорски

В ролях: Дженнифер Рубин, Дуг Верт, Мария Форд, Даниэль Траванти

Описание: Стареющая богатая красавица не хочет подчиниться законам природы и начинает пользоваться услугами косметолога, предложившего ей «сыворотку молодости». Героиня становится молодой и красивой, но, как и у всякого действия-есть противодействие. Другими словами, сыворотка оказывает на женщину побочный эффект в виде превращения в огромную осу, питающуюся кровью людей…

rating

Тип релиза: DVD5 (Custom)
Контейнер: DVD-Video
Видео: NTSC 4:3 (720x480) VBR
Аудио: Russian (Dolby AC3, 192 Кбит/сек, 2 ch)
Аудио 2: Russian (Dolby AC3, 192 Кбит/сек, 2 ch)
Аудио 3: Russian (Dolby AC3, 192 Кбит/сек, 2 ch)
Аудио 4: English (Dolby AC3, 192 Кбит/сек, 2 ch)
Size: 4.32 Gb ( 4 525 358 KBytes ) - DVD-5
Enabled regions: 1, 2, 3, 4, 5, 6, 7, 8

VTS_01 :
Play Length: 01:21:40
Video: NTSC 4:3 (720x480) VBR
Audio:
Russian (Dolby AC3, 2 ch)
Russian (Dolby AC3, 2 ch)
Russian (Dolby AC3, 2 ch)
English (Dolby AC3, 2 ch)

VTS_02 :
Play Length: 00:01:37
Video: NTSC 4:3 (720x480) VBR
Audio:
English (Dolby AC3, 2 ch)

Menu Video:
NTSC 4:3 (720x480) VBR
Menu Audio:
Not specified (Dolby AC3, 2 ch)
Menu Subtitles:
Not specified
Menu English Language Unit :
Root Menu
Общее
Полное имя : D:\DVD ГОТОВЫЕ\The Wasp Woman_1995\VIDEO_TS\VTS_01_1.VOB
Формат : MPEG-PS
Размер файла : 1024 Мбайт
Продолжительность : 18 м.
Режим общего битрейта : Переменный
Общий поток : 7742 Кбит/сек

Видео
Идентификатор : 224 (0xE0)
Формат : MPEG Video
Версия формата : Version 2
Профиль формата : Main@Main
Параметр BVOP формата : Да
Параметр матрицы формата : По умолчанию
Параметр GOP формата : M=3, N=13
Продолжительность : 18 м.
Вид битрейта : Переменный
Битрейт : 6820 Кбит/сек
Максимальный битрейт : 8500 Кбит/сек
Ширина : 720 пикселей
Высота : 480 пикселей
Соотношение сторон : 4:3
Частота кадров : 23,976 кадра/сек
Стандарт вещания : NTSC
Цветовое пространство : YUV
Субдискретизация насыщенности : 4:2:0
Битовая глубина : 8 бит
Тип развёртки : Прогрессивная
Порядок развёртки : 2:3 Pulldown
Метод сжатия : С потерями
Бит/(Пиксели*Кадры) : 0.823
Временной код первого кадра : 01:09:59;19
Оригинал временного кода : Group of pictures header
Размер потока : 902 Мбайт (88%)
Основные цвета : BT.601 NTSC
Характеристики трансфера : BT.601
Коэффициенты матрицы : BT.601

Аудио #1
Идентификатор : 189 (0xBD)-128 (0x80)
Формат : AC-3
Формат/Информация : Audio Coding 3
Расширение режима : CM (complete main)
Параметр Endianness формата : Big
Режим смешивания : DVD-Video
Продолжительность : 18 м.
Вид битрейта : Постоянный
Битрейт : 192 Кбит/сек
Каналы : 2 канала
Расположение каналов : Front: L R
Частота : 48,0 КГц
Битовая глубина : 16 бит
Метод сжатия : С потерями
Размер потока : 25,4 Мбайт (2%)

Аудио #2
Идентификатор : 189 (0xBD)-129 (0x81)
Формат : AC-3
Формат/Информация : Audio Coding 3
Расширение режима : CM (complete main)
Параметр Endianness формата : Big
Режим смешивания : DVD-Video
Продолжительность : 18 м.
Вид битрейта : Постоянный
Битрейт : 192 Кбит/сек
Каналы : 2 канала
Расположение каналов : Front: L R
Частота : 48,0 КГц
Битовая глубина : 16 бит
Метод сжатия : С потерями
Размер потока : 25,4 Мбайт (2%)

Аудио #3
Идентификатор : 189 (0xBD)-130 (0x82)
Формат : AC-3
Формат/Информация : Audio Coding 3
Расширение режима : CM (complete main)
Параметр Endianness формата : Big
Режим смешивания : DVD-Video
Продолжительность : 18 м.
Вид битрейта : Постоянный
Битрейт : 192 Кбит/сек
Каналы : 2 канала
Расположение каналов : Front: L R
Частота : 48,0 КГц
Битовая глубина : 16 бит
Метод сжатия : С потерями
Размер потока : 25,4 Мбайт (2%)

Аудио #4
Идентификатор : 189 (0xBD)-131 (0x83)
Формат : AC-3
Формат/Информация : Audio Coding 3
Расширение режима : CM (complete main)
Параметр Endianness формата : Big
Режим смешивания : DVD-Video
Продолжительность : 18 м.
Вид битрейта : Постоянный
Битрейт : 192 Кбит/сек
Каналы : 2 канала
Расположение каналов : Front: L R
Частота : 48,0 КГц
Битовая глубина : 16 бит
Метод сжатия : С потерями
Размер потока : 25,4 Мбайт (2%)

Меню
скриншот  скриншот  скриншот  
скриншот  скриншот  скриншот  скриншот  
pb.wtf



Скачать Женщина-оса через торрент http://i74.fastpic.ru/big/2016/0317/59/ee851ac4fb4d5071452b21e59f5ace59.jpg Скачать, смотреть онлайн Женщина-оса бесплантно в хорошем качестве Описание: Стареющая богатая красавица не хочет подчиниться законам природы и начинает пользоваться услугами косметолога, предложившего ей ... 5 10 1
Торрент: Зарегистрирован [2019-01-09 13:49] · скачан: 1 раз
Статус: √ проверено
Размер: 4.32 GB
Как cкачать? Как скачать Женщина-оса через торрент | UTorrent

28-11-2019 20:33  

Отключить всю рекламу на сайте

09-01-2019 13:53 Женщина-оса Скачать торрент  

марвеловский приквелл pb.wtf



09-01-2019 14:10 Женщина-оса Скачать торрент  

DavidLynch писал(а):

марвеловский приквелл

это уже ремейк фильма 1959-го года pb.wtf



    Дорогой пользователь! Огромная просьба, поблагодарите релизера, оцените раздачу и оставьте свои комментарий, если Вы скачали Женщина-оса через торрент бесплатно!
    Комментировать посты могут только пользователи прошедшие не сложную регистрацию
    Показать сообщения:    

    Женщина-оса через торрент
    Скачать бесплатно Женщина-оса
    Женщина-оса скачать торрент
    Женщина-оса смотреть онлайн
    Cкачать фильм Женщина-оса бесплатно
    Женщина-оса скачать торрент в хорошем качестве
    Женщина-оса смотреть онлайн бесплатно в хорошем качестве


    Вы не можете начинать темы
    Вы не можете отвечать на сообщения
    Вы не можете редактировать свои сообщения
    Вы не можете удалять свои сообщения
    Вы не можете голосовать в опросах
    Вы не можете прикреплять файлы к сообщениям
    Вы можете скачивать файлы