Ребята, если до конца года каждый наш пользователь пожертвует хотя бы 10 рублей, нам хватит денег оплатить все наши расходы.

iTunes

Хэллоуин

iTunes

venom

iTunes

Вы умрете, или мы вернем вам деньги

iTunes

iTunes

Тайна дома с часами

iTunes

Ничего хорошего в отеле «Эль рояль»

1080p

Хит недели

Лицензия

Агент Джонни Инглиш 3.0

ИГРА 18+

pack

RePack

Battlefield V

RePack

Assassins Creed: Odyssey
pack

Проголосуй

Лучший релизер 2018

RePack

Darksiders 3

iTunes 4K

venom Хит недели

RePack

fifa19

!!Акция!!

Alien_RageХит недели

RePack

NEED FOR SPEED™ PAYBACK

SATRip

9 сезон

Бесстыжие 9 сезон

Все сериалы

все сериалы на PB.wtf

iTunes

Мэнди

RePack

FAR CRY 5
  

Жизнь в забвении / Living in Oblivion (Том Дичилло) [1995, драма, комедия, BDRip 1080p] [DVO] + [AVO] (А.Гаврилов)

Жизнь в забвении через торрент

Размер: 7.3 GB | Добавлен: 8 д. назад | Торрент скачан:20 раз
Скачать  

09-01-2019 14:07 Жизнь в забвении Скачать торрент  

Жизнь в забвении / Living in Oblivion Год выпуска: 1995
Страна: США
Жанр: драма, комедия
Продолжительность: 1:30:05
Перевод 1: Профессиональный (двухголосый закадровый)
Перевод 2: Авторский (одноголосый закадровый) Андрей Гаврилов
Субтитры: русские, русские (перевод dezz), английские

Режиссер: Том Дичилло / Tom DiCillo

В ролях: Стив Бушеми, Кэтрин Кинер, Дермот Малруни, Даниэлла фон Зернек, Джеймс ЛиГрос, Рика Мартенс, Питер Динкледж, Кевин Корриган, Хилари Гилфорд, Роберт Вигтмэн

Описание: Один из культовых фильмов думающей молодёжи середины 90-х "Жизнь в забвении" иллюстрирует фрагмент процесса съёмок одноимённого малобюджетного фильма. Оказывается, чертовски трудно снимать независимое кино, когда актёры - дилетанты, съёмочная группа - неудачники, а успех дубля зависит от случайных обстоятельств. Интересно, что в 1-й половине фильма сей трудовой процесс представлен в чёрно-белом исполнении, как если бы мы смотрели реальный документальный фильм о съёмках, а снимаемый материал - в цветном, что позволяет нам таким образом смотреть фильм в фильме. По всей видимости, зрителю предлагается втянуться в картину и почувствовать на своей шкуре, каково быть режиссёром на грани нервного срыва (Стив Бушеми) или сентиментальным и неуклюжим оператором (Дермот Малруни).
Разумеется, фильм сам по себе представляет собой идеальный образчик независимого кино и рассчитан на публику, умеющую ценить подобное искусство. В любом случае, обязательно рекомендуется людям, считающим себя киноманами, желающим заглянуть за кулисы и познать технологию кинопроизводства.

rating

Тип релиза: BDRip 1080p
Контейнер: MKV
Видео: AVC, 1920x1040 (1,85:1), 23.976 fps, ~10.6 Мbps
Аудио 1: Russian: AC3, 5.1 ch., 48 kHz, 384 kbps - R5
Аудио 2: Russian: AC3, 2.0 ch., 48 kHz, 192 kbps - Гаврилов
Аудио 3: English: AC3, 5.1 ch., 48 kHz, 384 kbps
Формат субтитров: softsub (SRT)
Общее
Уникальный идентификатор : 218847666033394099345009442247727248565 (0xA4A486FEEBF75C03A97282027D4DF4B5)
Полное имя : D:\Torrents\Living in Oblivion [BDRip 1995].mkv
Формат : Matroska
Версия формата : Version 4 / Version 2
Размер файла : 7,30 Гбайт
Продолжительность : 1 ч. 30 м.
Общий поток : 11,6 Мбит/сек
Дата кодирования : UTC 2017-08-16 13:48:58
Программа кодирования : mkvmerge v13.0.0 ('The Juggler') 32bit
Библиотека кодирования : libebml v1.3.4 + libmatroska v1.4.5

Видео
Идентификатор : 1
Формат : AVC
Формат/Информация : Advanced Video Codec
Профиль формата : High@L4.1
Параметр CABAC формата : Да
Параметр ReFrames формата : 4 кадра
Идентификатор кодека : V_MPEG4/ISO/AVC
Продолжительность : 1 ч. 30 м.
Битрейт : 10,6 Мбит/сек
Ширина : 1920 пикселей
Высота : 1040 пикселей
Соотношение сторон : 1,85:1
Режим частоты кадров : Постоянный
Частота кадров : 23,976 (24000/1001) кадра/сек
Цветовое пространство : YUV
Субдискретизация насыщенности : 4:2:0
Битовая глубина : 8 бит
Тип развёртки : Прогрессивная
Бит/(Пиксели*Кадры) : 0.222
Размер потока : 6,70 Гбайт (92%)
Библиотека кодирования : x264 core 148 r2638 7599210
Настройки программы : cabac=1 / ref=4 / deblock=1:0:0 / analyse=0x3:0x113 / me=umh / subme=8 / psy=1 / psy_rd=1.00:0.00 / mixed_ref=1 / me_range=16 / chroma_me=1 / trellis=1 / 8x8dct=1 / cqm=0 / deadzone=21,11 / fast_pskip=0 / chroma_qp_offset=-2 / threads=18 / lookahead_threads=3 / sliced_threads=0 / nr=0 / decimate=1 / interlaced=0 / bluray_compat=0 / constrained_intra=0 / bframes=3 / b_pyramid=2 / b_adapt=1 / b_bias=0 / direct=1 / weightb=1 / open_gop=0 / weightp=2 / keyint=250 / keyint_min=23 / scenecut=40 / intra_refresh=0 / rc_lookahead=40 / rc=2pass / mbtree=1 / bitrate=10648 / ratetol=1.0 / qcomp=0.60 / qpmin=0 / qpmax=69 / qpstep=4 / cplxblur=20.0 / qblur=0.5 / ip_ratio=1.40 / aq=1:1.00
Язык : English
Default : Да
Forced : Да

Аудио #1
Идентификатор : 2
Формат : AC-3
Формат/Информация : Audio Coding 3
Параметр Endianness формата : Big
Идентификатор кодека : A_AC3
Продолжительность : 1 ч. 30 м.
Вид битрейта : Постоянный
Битрейт : 384 Кбит/сек
Каналы : 6 каналов
Расположение каналов : Front: L C R, Side: L R, LFE
Частота : 48,0 КГц
Частота кадров : 31,250 кадров/сек (1536 spf)
Битовая глубина : 16 бит
Метод сжатия : С потерями
Размер потока : 247 Мбайт (3%)
Заголовок : R5
Язык : Russian
ServiceKind/String : Complete Main
Default : Да
Forced : Нет

Аудио #2
Идентификатор : 3
Формат : AC-3
Формат/Информация : Audio Coding 3
Параметр Endianness формата : Big
Идентификатор кодека : A_AC3
Продолжительность : 1 ч. 30 м.
Вид битрейта : Постоянный
Битрейт : 192 Кбит/сек
Каналы : 2 канала
Расположение каналов : Front: L R
Частота : 48,0 КГц
Частота кадров : 31,250 кадров/сек (1536 spf)
Битовая глубина : 16 бит
Метод сжатия : С потерями
Размер потока : 124 Мбайт (2%)
Заголовок : Gavrilov
Язык : Russian
ServiceKind/String : Complete Main
Default : Нет
Forced : Нет

Аудио #3
Идентификатор : 4
Формат : AC-3
Формат/Информация : Audio Coding 3
Параметр Endianness формата : Big
Идентификатор кодека : A_AC3
Продолжительность : 1 ч. 30 м.
Вид битрейта : Постоянный
Битрейт : 384 Кбит/сек
Каналы : 6 каналов
Расположение каналов : Front: L C R, Side: L R, LFE
Частота : 48,0 КГц
Частота кадров : 31,250 кадров/сек (1536 spf)
Битовая глубина : 16 бит
Метод сжатия : С потерями
Размер потока : 247 Мбайт (3%)
Язык : English
ServiceKind/String : Complete Main
Default : Нет
Forced : Нет

Текст #1
Идентификатор : 5
Формат : UTF-8
Идентификатор кодека : S_TEXT/UTF8
Идентификатор кодека/Информация : UTF-8 Plain Text
Продолжительность : 1 ч. 27 м.
Битрейт : 114 бит/сек
ElementCount : 1016
Размер потока : 73,1 Кбайт (0%)
Заголовок : R5
Язык : Russian
Default : Да
Forced : Нет

Текст #2
Идентификатор : 6
Формат : UTF-8
Идентификатор кодека : S_TEXT/UTF8
Идентификатор кодека/Информация : UTF-8 Plain Text
Продолжительность : 1 ч. 27 м.
Битрейт : 146 бит/сек
ElementCount : 1392
Размер потока : 93,8 Кбайт (0%)
Заголовок : dezz
Язык : Russian
Default : Нет
Forced : Нет

Текст #3
Идентификатор : 7
Формат : UTF-8
Идентификатор кодека : S_TEXT/UTF8
Идентификатор кодека/Информация : UTF-8 Plain Text
Продолжительность : 1 ч. 25 м.
Битрейт : 89 бит/сек
ElementCount : 1601
Размер потока : 56,2 Кбайт (0%)
Язык : English
Default : Нет
Forced : Нет

Текст #4
Идентификатор : 8
Формат : UTF-8
Идентификатор кодека : S_TEXT/UTF8
Идентификатор кодека/Информация : UTF-8 Plain Text
Продолжительность : 1 ч. 25 м.
Битрейт : 91 бит/сек
ElementCount : 1638
Размер потока : 57,5 Кбайт (0%)
Заголовок : SDH
Язык : English
Default : Нет
Forced : Нет

Меню
00:00:00.000 : en:00:00:00.000
00:01:53.071 : en:00:01:53.071
00:03:46.101 : en:00:03:46.101
00:07:41.002 : en:00:07:41.002
00:12:31.876 : en:00:12:31.876
00:14:03.634 : en:00:14:03.634
00:16:26.694 : en:00:16:26.694
00:18:37.241 : en:00:18:37.241
00:27:18.178 : en:00:27:18.178
00:28:32.920 : en:00:28:32.920
00:30:06.513 : en:00:30:06.513
00:34:24.771 : en:00:34:24.771
00:39:45.133 : en:00:39:45.133
00:45:15.546 : en:00:45:15.546
00:46:22.738 : en:00:46:22.738
00:48:27.488 : en:00:48:27.488
00:49:37.600 : en:00:49:37.600
00:51:56.989 : en:00:51:56.989
00:54:10.873 : en:00:54:10.873
00:58:56.700 : en:00:58:56.700
01:03:53.997 : en:01:03:53.997
01:05:12.617 : en:01:05:12.617
01:08:40.074 : en:01:08:40.074
01:10:50.329 : en:01:10:50.329
01:13:39.749 : en:01:13:39.749
01:16:00.806 : en:01:16:00.806
01:20:24.570 : en:01:20:24.570
01:22:44.751 : en:01:22:44.751
скриншот  скриншот  скриншот  



Скачать Жизнь в забвении через торрент http://i2.imageban.ru/out/2017/08/17/22310c0484117b164f06725eb6eea1cb.jpg Скачать фильм Жизнь в забвении через торрент бесплантно в хорошем качестве Описание: Один из культовых фильмов думающей молодёжи середины 90-х "Жизнь в забвении" иллюстрирует фрагмент процесса съёмок одноимённого ... 6.5 10 2
Торрент: Зарегистрирован [2019-01-09 14:07] · скачан: 20 раз
Статус: √ проверено
Размер: 7.3 GB
Как cкачать? Как скачать Жизнь в забвении через торрент | qTorrent

% Раздел Тема Автор DL S | L
Фильмы с авторской озвучкой [ 1.45 GB ] Жизнь в забвении / Living in Oblivion [1995 HDRip] [AVO] killermax2013 Скачать
1 | 0


>> Регистрируемся здесь <<






Отзывы и комментарии о схеме читаем и пишем здесь: ---> Отзывы и комментарии о схеме

Новые благодарочки в телеграм довольных пользователей:
скриншот   скриншот   скриншот   скриншот   скриншот
    Дорогой пользователь! Огромная просьба, поблагодарите релизера, оцените раздачу и оставьте свои комментарий, если Вы скачали Жизнь в забвении через торрент бесплатно! Внесите свою лепту в развитие PiratBit!
    Комментировать посты могут только пользователи прошедшие не сложную регистрацию
    Показать сообщения:    

    Жизнь в забвении через торрент
    Скачать бесплатно Жизнь в забвении
    Жизнь в забвении скачать торрент
    Жизнь в забвении смотреть онлайн
    Cкачать фильм Жизнь в забвении бесплатно
    Жизнь в забвении скачать торрент в хорошем качестве
    Жизнь в забвении смотреть онлайн бесплатно в хорошем качестве


    Вы не можете начинать темы
    Вы не можете отвечать на сообщения
    Вы не можете редактировать свои сообщения
    Вы не можете удалять свои сообщения
    Вы не можете голосовать в опросах
    Вы не можете прикреплять файлы к сообщениям
    Вы можете скачивать файлы