Ссылка на приватное зеркало всего за 1$. Внимание количество ограничено!!!

OK

1+1

iTunes

мы

OK

1

WEB-DLRip

Джокер

Пифагор

Ведьмак / The Witcher сериал

iTunes

ПШазам

ОК

Оно 2

iTunes

30
pack

Вам бонус

ВАЖНО

!!Акция!!

Alien_RageХит недели

RePack

Resident Evil 21

ИГРА 18+

pack

RePack

jed

RePack

fifa19

RePack

Assassins Creed: Odyssey

RePack

NEED FOR SPEED™ PAYBACK

4 сезон

9 сезон

Бесстыжие 9 сезон

Все сериалы

все сериалы на PB.wtf

RePack

FAR CRY 5
  

Добро пожаловать в Мерси (Благословение Стигматы) / Welcome to Mercy (Beatus) (Томми Бертелсен) [2018 г., Ужасы, триллер, WEBRip, Любительский (двухголосый) Фенек] pb.wtf

Добро пожаловать в Мерси через торрент pb.wtf

Размер: 1.34 GB | Добавлен: 1 год 1 мес. назад | Торрент скачан:30 раз
Скачать  

23-11-2018 10:58 Добро пожаловать в Мерси Скачать торрент  

Добро пожаловать в Мерси (Благословение Стигматы) / Welcome to Mercy (Beatus)
Год выпуска: 2018
Страна: США
Жанр: Ужасы, триллер
Продолжительность: 01:44:38
Перевод: Любительский (двухголосый)Фенек
Субтитры: Отсутствуют

Режиссер: Томми Бертелсен

rating

В ролях: Лили Ньюмарк, Эйлин Дейвис, Кристен Рулин, София Масса, Марта Тимофеева

Описание: Мать-одиночка, отвергнутая своей семьей, вынуждена переступить через себя и поехать в другую страну, дабы повидаться с тяжелобольным отцом. Но по приезду на её теле начинают появляться стигматы. Девушка в ужасе, ей кажется, что вся семья отвернулась от неё и сослала в монастырь. Но всё обстоит совершенно иначе.

Доп. информация: присутствуют текстовые, аудио и видео вставки рекламы

Качество: WEBRip
Формат: AVI
Видео кодек: XviD
Аудио кодек: AC3
Видео: XviD, 720x304, 1568 Kbps
Аудио#1: AC3, 2 ch, 256 Kbps
скриншот   скриншот   скриншот   скриншот  

General
Complete name : K:\Welcome_to_Mercy_2018_webrip_fenec_studio.avi
Format : AVI
Format/Info : Audio Video Interleave
Format profile : OpenDML
File size : 1.34 GiB
Duration : 1 h 44 min
Overall bit rate : 1 836 kb/s
Writing application : Lavf58.22.100

Video
ID : 0
Format : MPEG-4 Visual
Format profile : Advanced Simple@L5
Format settings : BVOP1
Format settings, BVOP : 1
Format settings, QPel : No
Format settings, GMC : No warppoints
Format settings, Matrix : Default (H.263)
Codec ID : XVID
Codec ID/Hint : XviD
Duration : 1 h 44 min
Bit rate : 1 568 kb/s
Width : 720 pixels
Height : 304 pixels
Display aspect ratio : 2.40:1
Frame rate : 23.976 (24000/1001) FPS
Color space : YUV
Chroma subsampling : 4:2:0
Bit depth : 8 bits
Scan type : Progressive
Compression mode : Lossy
Bits/(Pixel*Frame) : 0.299
Stream size : 1.15 GiB (85%)
Writing library : Lavc58.39.100

Audio
ID : 1
Format : AC-3
Format/Info : Audio Coding 3
Commercial name : Dolby Digital
Codec ID : 2000
Duration : 1 h 44 min
Bit rate mode : Constant
Bit rate : 256 kb/s
Channel(s) : 2 channels
Channel layout : L R
Sampling rate : 48.0 kHz
Frame rate : 31.250 FPS (1536 SPF)
Bit depth : 16 bits
Compression mode : Lossy
Stream size : 192 MiB (14%)
Alignment : Aligned on interleaves
Interleave, duration : 32 ms (0.77 video frame)
Service kind : Complete Main

pb.wtf



Скачать Добро пожаловать в Мерси через торрент http://pic1.kartinco.top/images/11/8cmyx.jpg Скачать фильм Добро пожаловать в Мерси через торрент бесплантно в хорошем качестве Описание: Мать-одиночка, отвергнутая своей семьей, вынуждена переступить через себя и поехать в другую страну, дабы повидаться с ... 10 10 4
Торрент: Зарегистрирован [2018-12-12 18:28] · скачан: 30 раз
Статус: T временная
Размер: 1.34 GB
Как cкачать? Как скачать Добро пожаловать в Мерси через торрент | qTorrent

28-11-2019 20:33  

Отключить всю рекламу на сайте


23-11-2018 16:13 Добро пожаловать в Мерси Скачать торрент  

Может кому интересно (копипаст):

Отзыв: Фильм "Добро пожаловать в Мерси" (2018)

Достоинства:
Маленькая актриса, музыка, интрига есть.

Недостатки:
Не особо ужасы и совсем не триллер.

Начала фильма мне понравилось сразу, очень атмосферная музыка и картинка в начале. Думал самое интересное начнётся где-то минут через 40-50, как сейчас многие снимают,
потому что длительность фильма 1 час 43 минуты, но нет сюжет развивался быстро и интересно было наблюдать за всем.
Снято немного мрачновато, но понятно это же ужастики, но вот почему триллер я так и не понял, ни одного убийства я не увидел, так же особой жестокости.
За всё время я испытал чувство испуга один раз, просто как любят делать режиссеры, от неожиданности, когда этого совсем не ожидаешь.
Я заметил что в этом году прям популярна тема монахинь, взять например разрекламированный фильм "Проклятие монахини" (2018), но этот мне больше понравился,
хотя ужасов не там и не тут не было.
В фильме затронута тема эксорцизма, очень популярна в жанре ужасы, они все немного похожи, лежит человек привязанный к кровати, над ним священник,
а тот корчится с ужасным лицом и разговаривает голосом дьявола, просто ничего нового пока придумать не могут)). Но в этом фильме изгнание дьявола было интересно сделано
, даже сразу и не поймешь всё, только в конце фильма раскрывается полная тайна.
Фильм смотреть интересно, в нём есть интрига, хочется узнать что же на самом деле происходит и кто некоторые люди в фильме, кому всё таки можно доверять и кто
говорит правду главной героини.
История которую показали в фильме очень напомнила мне один из рассказов в книге "Одиночество в сети" которую написал Януш Леон Вишневский. Так же про запретную
любовь монахини и послушника.
Смутил в картине меня дисковый старинный телефон в монастыре, почему-то вместе цифр, там были наши русские буквы, а действие всё происходит в латышской глубинке.
Актёры мне понравилось как сыграли, особенно маленькая девочка, дочь главной героини: передала очень хорошо эмоции и атмосферу.
Хотя, как я ранее писал: фильм и не страшный, но всё таки один разок можно посмотреть, он не скучный, сюжет в конце вообще не такой как ожидаешь,
поэтому данному фильму "Добро пожаловать в Мерси" я смело могу поставить четыре балла, ожидал я конечно хуже, но если сравнивать с последними что я посмотрел,
тут сюжет нормальный, хотя и избитая тема.
Всем спасибо за уделённое внимание к моему отзыву, надеюсь кому-нибудь информация будет полезна и поможет сделать правильный выбор.pb.wtf



    Дорогой пользователь! Огромная просьба, поблагодарите релизера, оцените раздачу и оставьте свои комментарий, если Вы скачали Добро пожаловать в Мерси через торрент бесплатно! Внесите свою лепту в развитие PiratBit!
    Комментировать посты могут только пользователи прошедшие не сложную регистрацию
    Показать сообщения:    

    Добро пожаловать в Мерси через торрент
    Скачать бесплатно Добро пожаловать в Мерси
    Добро пожаловать в Мерси скачать торрент
    Добро пожаловать в Мерси смотреть онлайн
    Cкачать фильм Добро пожаловать в Мерси бесплатно
    Добро пожаловать в Мерси скачать торрент в хорошем качестве
    Добро пожаловать в Мерси смотреть онлайн бесплатно в хорошем качестве


    Вы не можете начинать темы
    Вы не можете отвечать на сообщения
    Вы не можете редактировать свои сообщения
    Вы не можете удалять свои сообщения
    Вы не можете голосовать в опросах
    Вы не можете прикреплять файлы к сообщениям
    Вы можете скачивать файлы