Ребята, если до конца года каждый наш пользователь пожертвует хотя бы 10 рублей, нам хватит денег оплатить все наши расходы.

iTunes

Хэллоуин

iTunes

venom

iTunes

Вы умрете, или мы вернем вам деньги

iTunes

iTunes

Тайна дома с часами

iTunes

Ничего хорошего в отеле «Эль рояль»

1080p

Хит недели

Лицензия

Агент Джонни Инглиш 3.0

ИГРА 18+

pack

RePack

Battlefield V

RePack

Assassins Creed: Odyssey
pack

Проголосуй

Лучший релизер 2018

RePack

Darksiders 3

iTunes 4K

venom Хит недели

RePack

fifa19

!!Акция!!

Alien_RageХит недели

RePack

NEED FOR SPEED™ PAYBACK

SATRip

9 сезон

Бесстыжие 9 сезон

Все сериалы

все сериалы на PB.wtf

iTunes

Мэнди

RePack

FAR CRY 5
  

Годзилла: Пожирающий планету / Godzilla: hoshi wo ku mono (Хироюки Сэсита, Сидзуно Кобун) [2018, аниме, мультфильм, боевик, фантастика, WEB-DL 720p] MVO [AlphaProject]

Годзилла: Пожирающий планету через торрент

Раздают: 1 [ 0 KB/s ]
Размер: 3.25 GB | Добавлен: 7 д. назад | Торрент скачан:38 раз
Скачать  

10-01-2019 04:59 Годзилла: Пожирающий планету Скачать торрент  

Годзилла: Пожирающий планету / Godzilla: hoshi wo ku mono Год выпуска: 2018
Страна: Япония
Жанр: аниме, мультфильм, боевик, фантастика
Продолжительность: 01:31:10
Перевод: Любительский (многоголосый) | AlphaProject
Субтитры: отсутствуют

Режиссер: Хироюки Сэсита, Сидзуно Кобун

rating

В ролях:

Мамору Мияно, Сакураи Такахиро, Кана Ханадзава, Томокадзу Сугита, Юки Кадзи, Рэина Уэда, Ари Одзава, Даисукэ Оно, Кэнъю Хориути, Кадзуя Накаи

Описание:

Совместными усилиями две цивилизации людей всё-таки одолели самого большого Годзиллу. Но планета не сдается и насылает на человечество более эффективное средство - монстра Кинга Гидору.

Качество: WEB-DL 720p
Формат: MKV

Видео: h.264, 4 717 Кбит/с, 1280x720
Аудио#1: Русский, (AC3, 2 ch, 384 Кбит/с)
скриншот  скриншот  скриншот  

Общее
Уникальный идентификатор : 220218785548591652512662664589858416243 (0xA5AC98683B87E1BD8B359BBA523DA673)
Полное имя : E:\торреннты\GФdzilla.Pojiratel.PlaneT.2018.Pa.WEB-DL.72Op.mkv
Формат : Matroska
Версия формата : Version 2
Размер файла : 3,25 Гбайт
Продолжительность : 1 ч. 31 м.
Режим общего битрейта : Переменный
Общий поток : 5103 Кбит/сек
Дата кодирования : UTC 2019-01-09 20:42:15
Программа кодирования : mkvmerge v8.3.0 ('Over the Horizon') 64bit
Библиотека кодирования : libebml v1.3.1 + libmatroska v1.4.2

Видео
Идентификатор : 1
Формат : AVC
Формат/Информация : Advanced Video Codec
Профиль формата : High@L4.1
Настройки формата : CABAC / 4 Ref Frames
Параметр CABAC формата : Да
Параметр RefFrames формата : 4 кадра
Идентификатор кодека : V_MPEG4/ISO/AVC
Продолжительность : 1 ч. 31 м.
Вид битрейта : Переменный
Битрейт : 4717 Кбит/сек
Максимальный битрейт : 5500 Кбит/сек
Ширина : 1280 пикселей
Высота : 720 пикселей
Соотношение сторон : 16:9
Режим частоты кадров : Постоянный
Частота кадров : 23,976 (24000/1001) кадра/сек
Стандарт вещания : Component
Цветовое пространство : YUV
Субдискретизация насыщенности : 4:2:0
Битовая глубина : 8 бит
Тип развёртки : Прогрессивная
Бит/(Пиксели*Кадры) : 0.209
Размер потока : 2,94 Гбайт (90%)
Default : Да
Forced : Нет
Цветовой диапазон : Limited
Основные цвета : BT.709
Характеристики трансфера : BT.709
Коэффициенты матрицы : BT.709

Аудио
Идентификатор : 2
Формат : AC-3
Формат/Информация : Audio Coding 3
Идентификатор кодека : A_AC3
Продолжительность : 1 ч. 31 м.
Вид битрейта : Постоянный
Битрейт : 384 Кбит/сек
Каналы : 2 канала
Расположение каналов : Front: L R
Частота : 48,0 КГц
Частота кадров : 31,250 кадров/сек (1536 SPF)
Битовая глубина : 16 бит
Метод сжатия : С потерями
Размер потока : 250 Мбайт (8%)
ServiceKind/String : Complete Main
Default : Да
Forced : Нет




Скачать Годзилла: Пожирающий планету через торрент https://d.radikal.ru/d29/1901/3c/592585c34d35.jpg Скачать фильм Годзилла: Пожирающий планету через торрент бесплантно в хорошем качестве Описание: Совместными усилиями две цивилизации людей всё-таки одолели самого большого Годзиллу. Но планета не сдается и насылает на ... 8.5 10 6
Торрент: Зарегистрирован [2019-01-10 04:59] · скачан: 38 раз
Статус: T временная
Размер: 3.25 GB
Как cкачать? Как скачать Годзилла: Пожирающий планету через торрент | qTorrent

% Раздел Тема Автор DL S | L
# Фильмы без перевода [ 5.08 GB ] Годзилла: Пожирающий планету / Godzilla: hoshi wo ku mono [2018 WEBRip 1080p Субтитры] Userman4ik Скачать
4 | 0
T Фильмы (мультфильмы) cо спонсором показа (Новинки AVI/MKV) [ 3.8 GB ] Годзилла: Пожирающий планету / Godzilla: hoshi wo ku mono [2018 аниме мультфильм WEB-DL 1080p] MVO [AlphaProject] bober100 Скачать
15 | 0
T Фильмы (мультфильмы) cо спонсором показа (Новинки AVI/MKV) [ 1.37 GB ] Годзилла: Пожирающий планету / Godzilla: hoshi wo ku mono [2018 аниме мультфильм WEB-DLRip] MVO [AlphaProject] bober100 Скачать
9 | 0


>> Регистрируемся здесь <<






Отзывы и комментарии о схеме читаем и пишем здесь: ---> Отзывы и комментарии о схеме

Новые благодарочки в телеграм довольных пользователей:
скриншот   скриншот   скриншот   скриншот   скриншот
    Дорогой пользователь! Огромная просьба, поблагодарите релизера, оцените раздачу и оставьте свои комментарий, если Вы скачали Годзилла: Пожирающий планету через торрент бесплатно! Внесите свою лепту в развитие PiratBit!
    Комментировать посты могут только пользователи прошедшие не сложную регистрацию
    Показать сообщения:    

    Годзилла: Пожирающий планету через торрент
    Скачать бесплатно Годзилла: Пожирающий планету
    Годзилла: Пожирающий планету скачать торрент
    Годзилла: Пожирающий планету смотреть онлайн
    Cкачать фильм Годзилла: Пожирающий планету бесплатно
    Годзилла: Пожирающий планету скачать торрент в хорошем качестве
    Годзилла: Пожирающий планету смотреть онлайн бесплатно в хорошем качестве


    Вы не можете начинать темы
    Вы не можете отвечать на сообщения
    Вы не можете редактировать свои сообщения
    Вы не можете удалять свои сообщения
    Вы не можете голосовать в опросах
    Вы не можете прикреплять файлы к сообщениям
    Вы можете скачивать файлы