Ребята, если до конца года каждый наш пользователь пожертвует хотя бы 10 рублей, нам хватит денег оплатить все наши расходы.

iTunes

Хэллоуин

iTunes

venom

iTunes

Вы умрете, или мы вернем вам деньги

iTunes

iTunes

Тайна дома с часами

iTunes

Ничего хорошего в отеле «Эль рояль»

1080p

Хит недели

Лицензия

Агент Джонни Инглиш 3.0

ИГРА 18+

pack

RePack

Battlefield V

RePack

Assassins Creed: Odyssey
pack

Проголосуй

Лучший релизер 2018

RePack

Darksiders 3

iTunes 4K

venom Хит недели

RePack

fifa19

!!Акция!!

Alien_RageХит недели

RePack

NEED FOR SPEED™ PAYBACK

SATRip

9 сезон

Бесстыжие 9 сезон

Все сериалы

все сериалы на PB.wtf

iTunes

Мэнди

RePack

FAR CRY 5
  

Трудный ребенок 2 / Problem Child 2 (Брайан Левант) [1991, комедия, семейный, BDRip 1080p by msltel] 3 x MVO, 3 x AVO, 2 x VO

Трудный ребенок 2 через торрент

Раздают: 1 [ 431 KB/s ] Качают: 1 [ 0 KB/s ]
Размер: 13.28 GB | Добавлен: 7 д. назад | Торрент скачан:12 раз
Скачать  

10-01-2019 08:00 Трудный ребенок 2 Скачать торрент  

Название: Трудный ребенок 2
Оригинальное название: Problem Child 2
Год выпуска: 1991
Страна: США
Жанр: комедия, семейный
Продолжительность: 01:30:40
Перевод: закадровый многоголосый, авторский, закадровый одноголосый

Режиссер: Брайан Левант
В ролях: Джон Риттер, Майкл Оливер, Джек Уорден, Лорейн Ньюмен, Эми Ясбек, Ивианн Шван, Гилберт Готтфрид, Пол Вилсон, Алан Блюменфилд, Шарлин Тилтон

О фильме: Озорник Джуниор Хили невозможный ребенок, но приёмный отец терпит его выходки и старается сдержать свой гнев. Ведь Джуниор всего лишь маленький мальчик, хотя и трудный. Ситуация в семье изменилась после первой части фильма. Папа Хили развёлся с женой и переезжает вместе с сыном в квартал, где живут, в основном, разведённые женщины. Сразу же папа Хили становится объектом пристального внимания этих «хищниц». Вскоре Хили-старший связывает себя обязательствами по отношению к женщине, которая ненавидит Хили-младшего. В ответ, Джуниор приводит в дом свою маленькую подружку, трудного ребенка N2...



Качество: BDRip 1080p
Формат: MKV
Видео: MPEG-4 AVC, 17.5 Mбит/с, 1920x1040
Аудио 1: русский, AC3, 192 kbps, 2 ch, 48 kHz [закадровый многоголосый, Пифагор]
Аудио 2: русский, AC3, 192 kbps, 2 ch, 48 kHz [закадровый многоголосый, HTB]
Аудио 3: русский, AC3, 192 kbps, 2 ch, 48 kHz [закадровый многоголосый, CTC]
Аудио 4: русский, AC3, 192 kbps, 2 ch, 48 kHz [авторский, Леша-прапорщик]
Аудио 5: русский, DTS, 768 kbps, 2 ch, 48 kHz [авторский, Алексей Михалёв]
Аудио 6: русский, DTS, 768 kbps, 2 ch, 48 kHz [авторский, Юрий Немахов]
Аудио 7: русский, AC3, 192 kbps, 2 ch, 48 kHz [закадровый одноголосый]
Аудио 8: русский, AC3, 192 kbps, 2 ch, 48 kHz [закадровый одноголосый]
Аудио 9: английский, DTS, 768 kbps, 2 ch, 48 kHz [оригинал]
Субтитры 1: русские (pgs)
Субтитры 2: русские (srt)
Субтитры 3: английские
Главы/чаптеры
Общее
Уникальный идентификатор : 183485133352807906764709372400066997475 (0x8A09F38642BD9CE783F28EC8B725ACE3)
Полное имя : D:\Video\Трудный ребёнок 2.1991.BDRip 1080p by msltel.mkv
Формат : Matroska
Версия формата : Version 4
Размер файла : 13,3 Гбайт
Продолжительность : 1 ч. 30 м.
Общий поток : 21,0 Мбит/сек
Название фильма : Rip by msltel
Дата кодирования : UTC 2019-01-10 06:53:13
Программа кодирования : mkvmerge v8.2.0 ('World of Adventure') 64bit
Библиотека кодирования : libebml v1.3.1 + libmatroska v1.4.2

Видео
Идентификатор : 1
Формат : AVC
Формат/Информация : Advanced Video Codec
Профиль формата : High@L4.1
Настройки формата : CABAC / 4 Ref Frames
Параметр CABAC формата : Да
Параметр RefFrames формата : 4 кадра
Идентификатор кодека : V_MPEG4/ISO/AVC
Продолжительность : 1 ч. 30 м.
Битрейт : 17,5 Мбит/сек
Ширина : 1920 пикселей
Высота : 1040 пикселей
Соотношение сторон : 1,85:1
Режим частоты кадров : Постоянный
Частота кадров : 23,976 (24000/1001) кадра/сек
Цветовое пространство : YUV
Субдискретизация насыщенности : 4:2:0
Битовая глубина : 8 бит
Тип развёртки : Прогрессивная
Бит/(Пиксели*Кадры) : 0.366
Размер потока : 11,1 Гбайт (83%)
Библиотека кодирования : x264 core 157 r2935 545de2f
Настройки программы : cabac=1 / ref=4 / deblock=1:-2:-2 / analyse=0x3:0x113 / me=umh / subme=11 / psy=1 / psy_rd=1.00:0.15 / mixed_ref=1 / me_range=32 / chroma_me=1 / trellis=2 / 8x8dct=1 / cqm=0 / deadzone=21,11 / fast_pskip=0 / chroma_qp_offset=-3 / threads=6 / lookahead_threads=1 / sliced_threads=0 / nr=0 / decimate=1 / interlaced=0 / bluray_compat=0 / constrained_intra=0 / bframes=10 / b_pyramid=2 / b_adapt=2 / b_bias=0 / direct=1 / weightb=1 / open_gop=0 / weightp=2 / keyint=230 / keyint_min=23 / scenecut=40 / intra_refresh=0 / rc_lookahead=40 / rc=crf / mbtree=0 / crf=18.6 / qcomp=0.60 / qpmin=0 / qpmax=69 / qpstep=4 / vbv_maxrate=62500 / vbv_bufsize=78125 / crf_max=0.0 / nal_hrd=none / filler=0 / ip_ratio=1.40 / pb_ratio=1.30 / aq=1:1.00
Язык : English
Default : Да
Forced : Нет

Аудио #1
Идентификатор : 2
Формат : AC-3
Формат/Информация : Audio Coding 3
Коммерческое название : Dolby Digital
Идентификатор кодека : A_AC3
Продолжительность : 1 ч. 30 м.
Вид битрейта : Постоянный
Битрейт : 192 Кбит/сек
Каналы : 2 канала
Channel layout : L R
Частота : 48,0 КГц
Частота кадров : 31,250 кадров/сек (1536 SPF)
Битовая глубина : 16 бит
Метод сжатия : С потерями
Размер потока : 125 Мбайт (1%)
Заголовок : MVO Пифагор
Язык : Russian
ServiceKind/String : Complete Main
Default : Да
Forced : Нет

Аудио #2
Идентификатор : 3
Формат : AC-3
Формат/Информация : Audio Coding 3
Коммерческое название : Dolby Digital
Идентификатор кодека : A_AC3
Продолжительность : 1 ч. 30 м.
Вид битрейта : Постоянный
Битрейт : 192 Кбит/сек
Каналы : 2 канала
Channel layout : L R
Частота : 48,0 КГц
Частота кадров : 31,250 кадров/сек (1536 SPF)
Битовая глубина : 16 бит
Метод сжатия : С потерями
Размер потока : 125 Мбайт (1%)
Заголовок : MVO HTB
Язык : Russian
ServiceKind/String : Complete Main
Default : Нет
Forced : Нет

Аудио #3
Идентификатор : 4
Формат : AC-3
Формат/Информация : Audio Coding 3
Коммерческое название : Dolby Digital
Идентификатор кодека : A_AC3
Продолжительность : 1 ч. 30 м.
Вид битрейта : Постоянный
Битрейт : 192 Кбит/сек
Каналы : 2 канала
Channel layout : L R
Частота : 48,0 КГц
Частота кадров : 31,250 кадров/сек (1536 SPF)
Битовая глубина : 16 бит
Метод сжатия : С потерями
Размер потока : 125 Мбайт (1%)
Заголовок : MVO CTC
Язык : Russian
ServiceKind/String : Complete Main
Default : Нет
Forced : Нет

Аудио #4
Идентификатор : 5
Формат : AC-3
Формат/Информация : Audio Coding 3
Коммерческое название : Dolby Digital
Идентификатор кодека : A_AC3
Продолжительность : 1 ч. 30 м.
Вид битрейта : Постоянный
Битрейт : 192 Кбит/сек
Каналы : 2 канала
Channel layout : L R
Частота : 48,0 КГц
Частота кадров : 31,250 кадров/сек (1536 SPF)
Битовая глубина : 16 бит
Метод сжатия : С потерями
Размер потока : 125 Мбайт (1%)
Заголовок : Леша-Прапорщик
Язык : Russian
ServiceKind/String : Complete Main
Default : Нет
Forced : Нет

Аудио #5
Идентификатор : 6
Формат : DTS
Формат/Информация : Digital Theater Systems
Идентификатор кодека : A_DTS
Продолжительность : 1 ч. 30 м.
Вид битрейта : Постоянный
Битрейт : 768 Кбит/сек
Каналы : 2 канала
Channel layout : L R
Частота : 48,0 КГц
Частота кадров : 93,750 кадра/сек (512 SPF)
Битовая глубина : 24 бит
Метод сжатия : С потерями
Размер потока : 498 Мбайт (4%)
Заголовок : Алексей Михалёв
Язык : Russian
Default : Нет
Forced : Нет

Аудио #6
Идентификатор : 7
Формат : DTS
Формат/Информация : Digital Theater Systems
Идентификатор кодека : A_DTS
Продолжительность : 1 ч. 30 м.
Вид битрейта : Постоянный
Битрейт : 768 Кбит/сек
Каналы : 2 канала
Channel layout : L R
Частота : 48,0 КГц
Частота кадров : 93,750 кадра/сек (512 SPF)
Битовая глубина : 24 бит
Метод сжатия : С потерями
Размер потока : 498 Мбайт (4%)
Заголовок : Юрий Немахов
Язык : Russian
Default : Нет
Forced : Нет

Аудио #7
Идентификатор : 8
Формат : AC-3
Формат/Информация : Audio Coding 3
Коммерческое название : Dolby Digital
Идентификатор кодека : A_AC3
Продолжительность : 1 ч. 30 м.
Вид битрейта : Постоянный
Битрейт : 192 Кбит/сек
Каналы : 2 канала
Channel layout : L R
Частота : 48,0 КГц
Частота кадров : 31,250 кадров/сек (1536 SPF)
Битовая глубина : 16 бит
Метод сжатия : С потерями
Размер потока : 125 Мбайт (1%)
Заголовок : VO
Язык : Russian
ServiceKind/String : Complete Main
Default : Нет
Forced : Нет

Аудио #8
Идентификатор : 9
Формат : AC-3
Формат/Информация : Audio Coding 3
Коммерческое название : Dolby Digital
Идентификатор кодека : A_AC3
Продолжительность : 1 ч. 30 м.
Вид битрейта : Постоянный
Битрейт : 192 Кбит/сек
Каналы : 2 канала
Channel layout : L R
Частота : 48,0 КГц
Частота кадров : 31,250 кадров/сек (1536 SPF)
Битовая глубина : 16 бит
Метод сжатия : С потерями
Размер потока : 125 Мбайт (1%)
Заголовок : VO
Язык : Russian
ServiceKind/String : Complete Main
Default : Нет
Forced : Нет

Аудио #9
Идентификатор : 10
Формат : DTS
Формат/Информация : Digital Theater Systems
Идентификатор кодека : A_DTS
Продолжительность : 1 ч. 30 м.
Вид битрейта : Постоянный
Битрейт : 768 Кбит/сек
Каналы : 2 канала
Channel layout : L R
Частота : 48,0 КГц
Частота кадров : 93,750 кадра/сек (512 SPF)
Битовая глубина : 24 бит
Метод сжатия : С потерями
Размер потока : 498 Мбайт (4%)
Заголовок : original
Язык : English
Default : Нет
Forced : Нет

Текст #1
Идентификатор : 11
Формат : PGS
Режим смешивания : zlib
Идентификатор кодека : S_HDMV/PGS
Идентификатор кодека/Информация : Picture based subtitle format used on BDs/HD-DVDs
Продолжительность : 1 ч. 25 м.
Битрейт : 5760 бит/сек
ElementCount : 1396
Размер потока : 3,54 Мбайт (0%)
Заголовок : русские (sup)
Язык : Russian
Default : Нет
Forced : Нет

Текст #2
Идентификатор : 12
Формат : UTF-8
Идентификатор кодека : S_TEXT/UTF8
Идентификатор кодека/Информация : UTF-8 Plain Text
Продолжительность : 1 ч. 25 м.
Битрейт : 88 бит/сек
ElementCount : 698
Размер потока : 55,7 Кбайт (0%)
Заголовок : русские (srt)
Язык : Russian
Default : Нет
Forced : Нет

Текст #3
Идентификатор : 13
Формат : UTF-8
Идентификатор кодека : S_TEXT/UTF8
Идентификатор кодека/Информация : UTF-8 Plain Text
Продолжительность : 1 ч. 26 м.
Битрейт : 75 бит/сек
ElementCount : 1065
Размер потока : 47,5 Кбайт (0%)
Заголовок : английские
Язык : English
Default : Нет
Forced : Нет

Меню
00:00:00.000 : :Chapter 1
00:08:37.099 : :Chapter 2
00:15:27.760 : :Chapter 3
00:22:09.036 : :Chapter 4
00:30:04.761 : :Chapter 5
00:37:24.824 : :Chapter 6
00:44:35.381 : :Chapter 7
00:53:18.695 : :Chapter 8
00:59:16.761 : :Chapter 9
01:07:50.941 : :Chapter 10
01:14:26.003 : :Chapter 11
01:20:51.095 : :Chapter 12
01:30:40.435 : :Chapter 13



Скачать Трудный ребенок 2 через торрент https://a.radikal.ru/a35/1901/ed/75fcff4edd8d.jpg Скачать фильм Трудный ребенок 2 через торрент бесплантно в хорошем качестве О фильме: Озорник Джуниор Хили невозможный ребенок, но приёмный отец терпит его выходки и старается сдержать свой гнев. Ведь Джуниор всего ... 10 10 4
Info! Золотая раздача, скачанное не засчитывается.
Торрент: Зарегистрирован [2019-01-10 08:00] · скачан: 12 раз
Статус: √ проверено
Размер: 13.28 GB
Как cкачать? Как скачать Трудный ребенок 2 через торрент | qTorrent

% Раздел Тема Автор DL S | L
Фильмы [HD 720p, 1080p] (Хороший звук DUB, MVO) [ 5.26 GB ] Трудный ребенок 2 / Problem Child 2 [1991 BDRip 720p by msltel] 3 x MVO 3 x AVO 2 x VO msltel Скачать
10 | 0


>> Регистрируемся здесь <<






Отзывы и комментарии о схеме читаем и пишем здесь: ---> Отзывы и комментарии о схеме

Новые благодарочки в телеграм довольных пользователей:
скриншот   скриншот   скриншот   скриншот   скриншот
    Дорогой пользователь! Огромная просьба, поблагодарите релизера, оцените раздачу и оставьте свои комментарий, если Вы скачали Трудный ребенок 2 через торрент бесплатно! Внесите свою лепту в развитие PiratBit!
    Комментировать посты могут только пользователи прошедшие не сложную регистрацию
    Показать сообщения:    

    Трудный ребенок 2 через торрент
    Скачать бесплатно Трудный ребенок 2
    Трудный ребенок 2 скачать торрент
    Трудный ребенок 2 смотреть онлайн
    Cкачать фильм Трудный ребенок 2 бесплатно
    Трудный ребенок 2 скачать торрент в хорошем качестве
    Трудный ребенок 2 смотреть онлайн бесплатно в хорошем качестве


    Вы не можете начинать темы
    Вы не можете отвечать на сообщения
    Вы не можете редактировать свои сообщения
    Вы не можете удалять свои сообщения
    Вы не можете голосовать в опросах
    Вы не можете прикреплять файлы к сообщениям
    Вы можете скачивать файлы