новый адрес пиратбит piratbit
Мега распродажа FORZA HORIZON 4 ULTIMATE+ВСЕ DLC+ОНЛАЙН всего за 499р. 349 руб. (супер цена). Внимание количество ограничено!!!

iTunes

1+1

iTunes

мы

iTunes

1

iTunes

Чернобыль

iTunes

Ральф против интернета

Лицензия

ПШазам

Лицензия

Игра престолов

Лицензия

30
pack

ВАЖНО

!!Акция!!

Alien_RageХит недели

RePack

Resident Evil 21

ИГРА 18+

pack

RePack

Metro:Exodus

!!Акция!!

Alien_Rage

RePack

fifa19

RePack

Assassins Creed: Odyssey

RePack

NEED FOR SPEED™ PAYBACK

3 сезон

9 сезон

Бесстыжие 9 сезон

Все сериалы

все сериалы на PB.wtf

RePack

FAR CRY 5
Ребята, катастрофически не хватает 1900р. для оплаты серверов за Октябрь (всвязи с блокировками трафик упал в 3 раза), 1-2р., выручайте.
  

Рэй Донован / Ray Donovan / Сезон: 6 / Серии: 1-12 из 12 (Джон Дал, Майкл Аппендаль, Такер Гейтс) [2018, Драма, криминал, WEB-DLRip] [MVO] (Amedia) pb.wtf

Рэй Донован через торрент pb.wtf

Раздают: 1 [ 0 KB/s ]
Размер: 8.5 GB | Добавлен: 9 мес. назад | Торрент скачан:33 раза
Скачать  

10-01-2019 10:28 Рэй Донован Скачать торрент  

Рэй Донован | Ray Donovan
Год выпуска: 2018
Страна: США
Жанр: Драма, криминал
Продолжительность: ~00:55:00
Перевод: Профессиональный (многоголосый закадровый) | Novamedia по заказу Amedia
Режиссёр: Джон Дал, Майкл Аппендаль, Такер Гейтс
В ролях: Лив Шрайбер, Паула Малкомсон, Кэтрин Монниг, Пуч Холл, Кэррис Дорси, Девон Бэгби, Джон Войт, Стивен Бауэр, Уильям Стэнфорд Дэвис, Майкл МакГрэйди, Фрэнк Уэйли, Эллиотт Гулд, Октавиус Дж. Джонсон, Эмбир Чилдерс и др.
Описание: Рэй Донован решает любые проблемы богатых и знаменитых людей Лос-Анджелеса, но при этом не может разобраться со своей собственной семьёй...


Исходник: WEB-DL 1080p
Качество: WEB-DLRip
Формат: AVI
Видео: XviD, 720x400, 23,976 кадров/сек, ~1500 Кбит/сек
Аудио Rus: AC3, 48 kHz, 2 ch, 192 Кбит/сек | Novamedia
Аудио Eng: AC3, 48 kHz, 2 ch, 192 Кбит/сек
General
Complete name : F:\Ray Donovan (Season 06)\Ray Donovan.6.01.Amedia.avi
Format : AVI
Format/Info : Audio Video Interleave
File size : 799 MiB
Duration : 59 min 5 s
Overall bit rate : 1 891 kb/s
Director : BiNMoViE
Writing application : VirtualDubMod 1.5.10.2 (build 2540/release)
Writing library : VirtualDubMod build 2540/release

Video
ID : 0
Format : MPEG-4 Visual
Format profile : Advanced Simple@L5
Format settings : BVOP2
Format settings, BVOP : 2
Format settings, QPel : No
Format settings, GMC : No warppoints
Format settings, Matrix : Default (MPEG)
Codec ID : XVID
Codec ID/Hint : XviD
Duration : 59 min 5 s
Bit rate : 1 421 kb/s
Width : 720 pixels
Height : 400 pixels
Display aspect ratio : 16:9
Frame rate : 23.976 (24000/1001) FPS
Color space : YUV
Chroma subsampling : 4:2:0
Bit depth : 8 bits
Scan type : Progressive
Compression mode : Lossy
Bits/(Pixel*Frame) : 0.206
Stream size : 601 MiB (75%)
Writing library : XviD 1.2.1 (UTC 2008-12-04)

Audio #1
ID : 1
Format : AC-3
Format/Info : Audio Coding 3
Format settings, Endianness : Big
Codec ID : 2000
Duration : 58 min 7 s
Bit rate mode : Constant
Bit rate : 192 kb/s
Channel(s) : 2 channels
Channel positions : Front: L R
Sampling rate : 48.0 kHz
Frame rate : 31.250 FPS (1536 SPF)
Bit depth : 16 bits
Compression mode : Lossy
Delay relative to video : 8 ms
Stream size : 79.8 MiB (10%)
Alignment : Split accross interleaves
Service kind : Complete Main

Audio #2
ID : 2
Format : AC-3
Format/Info : Audio Coding 3
Format settings, Endianness : Big
Codec ID : 2000
Duration : 59 min 5 s
Bit rate mode : Constant
Bit rate : 192 kb/s
Channel(s) : 2 channels
Channel positions : Front: L R
Sampling rate : 48.0 kHz
Frame rate : 31.250 FPS (1536 SPF)
Bit depth : 16 bits
Compression mode : Lossy
Stream size : 81.2 MiB (10%)
Alignment : Split accross interleaves
Service kind : Complete Main

скриншот  скриншот  скриншот  

Внимание! Раздача ведётся путём добавления новых серий; при каждом добавлении создаётся новый торрент. Чтобы начать докачку новой серии, пользователям необходимо сделать следующее:
(1) остановить скачивание,
(2) удалить старый торрент у себя из клиента (старые серии удалять не надо),
(3) скачать новый торрент и запустить его у себя в клиенте вместо старого, при этом указать клиенту путь в старую папку куда и должно происходить скачивание новых серий.

Ваш клиент при этом должен произвести хеширование (проверку) старой папки (если не производит сам - помогите ему сделать это), и будет докачивать только те серии которых у вас ещё нет. Старые серии при этом не удаляются, а продолжают раздаваться!

Eсли вы уже удалили старые серии, то предотвратить повторную закачку старых серий можно, отжав галочку в соответствующих местах при запуске нового торрента. По возможности, желательно не удалять старые серии как можно дольше чтобы релизёр не столько продолжал раздавать старые серии, а смог сконцентрироваться на новых.
pb.wtf



Скачать Рэй Донован через торрент https://i5.imageban.ru/out/2018/10/30/c241bb4b1280b659a581a27b85ad5ee4.jpg Скачать фильм Рэй Донован через торрент бесплантно в хорошем качестве Описание: Рэй Донован решает любые проблемы богатых и знаменитых людей Лос-Анджелеса, но при этом не может разобраться со своей собственной ... 9.3 10 3
Торрент: Зарегистрирован [2019-01-16 13:14] · скачан: 33 раз
Статус: √ проверено
Размер: 8.5 GB
Как cкачать? Как скачать Рэй Донован через торрент | qTorrent

% Раздел Тема Автор DL S | L
Рэй Донован [ 14.81 GB ] Рэй Донован / Ray Donovan / Сезон: 6 / Серии: 1-12 из 12 [2018-2019 WEB-DL 720p] MVO [Amedia] bober100 Скачать
1 | 0
Рэй Донован [ 29.69 GB ] Рэй Донован / Ray Donovan / Сезон: 6 / Серии: 1-12 из 12 [2018 WEB-DL 1080p] [MVO] killermax2013 Скачать
1 | 1
Рэй Донован [ 11.32 GB ] Рэй Донован / Ray Donovan / Сезон: 6 / Серии: 1-12 из 12 [2018 WEB-DL 720p] MVO [Jaskier] bober100 Скачать
1 | 0
Рэй Донован [ 29.68 GB ] Рэй Донован / Ray Donovan / Сезон: 6 / Серии: 1-12 из 12 [2018 WEB-DL 1080p] [MVO] killermax2013 Скачать
1 | 0
Рэй Донован [ 29.73 GB ] Рэй Донован / Ray Donovan / Сезон: 6 / Серии: 1-12 из 12 [2018 WEB-DL 1080p] [MVO] killermax2013 Скачать
1 | 0
Рэй Донован [ 7.8 GB ] Рэй Донован / Ray Donovan / Сезон: 6 / Серии 1-12 из 12 [2018 WEB-DLRip] MVO [NewStudio] GEKADOL Скачать
3 | 0
Рэй Донован [ 7.86 GB ] Рэй Донован / Ray Donovan / Сезон: 6 / Серии: 1-12 из 12 [2018 WEB-DLRip] MVO [Jaskier] bober100 Скачать
1 | 0


Последний раз редактировалось: killermax2013 (2019-01-16 13:31), всего редактировалось 1 раз


>> Регистрируемся здесь <<






Отзывы и комментарии о схеме читаем и пишем здесь: ---> Отзывы и комментарии о схеме

Новые благодарочки в телеграм довольных пользователей:
скриншот   скриншот   скриншот   скриншот   скриншот

16-01-2019 13:23 Рэй Донован Скачать торрент  

я первыйpb.wtf



    Дорогой пользователь! Огромная просьба, поблагодарите релизера, оцените раздачу и оставьте свои комментарий, если Вы скачали Рэй Донован через торрент бесплатно! Внесите свою лепту в развитие PiratBit!
    Комментировать посты могут только пользователи прошедшие не сложную регистрацию
    Показать сообщения:    

    Рэй Донован через торрент
    Скачать бесплатно Рэй Донован
    Рэй Донован скачать торрент
    Рэй Донован смотреть онлайн
    Cкачать фильм Рэй Донован бесплатно
    Рэй Донован скачать торрент в хорошем качестве
    Рэй Донован смотреть онлайн бесплатно в хорошем качестве


    Вы не можете начинать темы
    Вы не можете отвечать на сообщения
    Вы не можете редактировать свои сообщения
    Вы не можете удалять свои сообщения
    Вы не можете голосовать в опросах
    Вы не можете прикреплять файлы к сообщениям
    Вы можете скачивать файлы