Ребята, если до конца года каждый наш пользователь пожертвует хотя бы 10 рублей, нам хватит денег оплатить все наши расходы.

iTunes

Хэллоуин

iTunes

venom

iTunes

Вы умрете, или мы вернем вам деньги

iTunes

iTunes

Тайна дома с часами

iTunes

Ничего хорошего в отеле «Эль рояль»

1080p

Хит недели

Лицензия

Агент Джонни Инглиш 3.0

ИГРА 18+

pack

RePack

Battlefield V

RePack

Assassins Creed: Odyssey
pack

Проголосуй

Лучший релизер 2018

RePack

Darksiders 3

iTunes 4K

venom Хит недели

RePack

fifa19

!!Акция!!

Alien_RageХит недели

RePack

NEED FOR SPEED™ PAYBACK

SATRip

9 сезон

Бесстыжие 9 сезон

Все сериалы

все сериалы на PB.wtf

iTunes

Мэнди

RePack

FAR CRY 5
  

Страна приливов / Tidelands / Сезон 1 / Серии 1-8 (8) (Стефен Ирвин, Ли МакГрат) [2018, фэнтези, драма, криминал, WEBRip] [MVO] (LostFilm)

Страна приливов через торрент

Размер: 4.15 GB | Добавлен: 6 д. назад | Торрент скачан:9 раз
Скачать  

10-01-2019 10:40 Страна приливов Скачать торрент  

Страна приливов | Tidelands
Год выпуска: 2018
Страна: Австралия
Жанр: Фэнтези, драма, криминал
Продолжительность: ~ 00:42:00
Перевод: Профессиональный (многоголосый закадровый) | LostFilm
Режиссёр: Тоа Фрейзер, Катриона МакКензи
В ролях: Шарлотта Бест, Дастин Клер, Маттиас Инвуд, Аарон Якубенко, Мадлен Мэдден, Питер О’Брайэн, Эльза Патаки и др
Описание: Бывшая преступница возвращается домой в маленькую деревеньку Орфелин Бэй. Спокойной жизни не суждено состояться: вскоре неподалеку всплывет тело местного рыбака, а героиня столкнется с интересным феноменом — орудующей в прибрежной зоне группой таинственных человекоамфибий.


Качество: WEBRip
Формат: AVI
Видео: XviD, 704x352 (2,000), 25,000 кадров/сек, ~1500 Кбит/сек
Аудио Rus: MP3, 48 kHz, 2 ch, 128 Кбит/сек | LostFilm
Аудио Eng: MP3, 48 kHz, 2 ch, 128 Кбит/сек
Субтитры: Русские (Александра Короткова), английские
Общее
Полное имя : E:\Tidelands (Season 1) WEBRip\Tidelands.S01E01.WEBRip.RGzsRutracker.[Wentworth_Miller].avi
Формат : AVI
Формат/Информация : Audio Video Interleave
Размер файла : 533 Мбайт
Продолжительность : 42 м. 4 с.
Общий поток : 1770 Кбит/сек
Программа кодирования : VirtualDubMod 1.5.10.3 | www.virtualdub-fr.org || (build 2550/release)
Библиотека кодирования : VirtualDubMod build 2550/release

Видео
Идентификатор : 0
Формат : MPEG-4 Visual
Профиль формата : Advanced Simple@L5
Настройки формата : BVOP2
Параметр BVOP формата : 2
Параметр QPel формата : Нет
Параметр GMC формата : Без точки перехода
Параметр матрицы формата : Default (MPEG)
Идентификатор кодека : XVID
Идентификатор кодека/Подсказка : XviD
Продолжительность : 42 м. 4 с.
Битрейт : 1499 Кбит/сек
Ширина : 704 пикселя
Высота : 352 пикселя
Соотношение сторон : 2,000
Частота кадров : 25,000 кадров/сек
Цветовое пространство : YUV
Субдискретизация насыщенности : 4:2:0
Битовая глубина : 8 бит
Тип развёртки : Прогрессивная
Метод сжатия : С потерями
Бит/(Пиксели*Кадры) : 0.242
Размер потока : 451 Мбайт (85%)
Библиотека кодирования : XviD 61

Аудио #1
Идентификатор : 1
Формат : MPEG Audio
Версия формата : Version 1
Профиль формата : Layer 3
Идентификатор кодека : 55
Идентификатор кодека/Подсказка : MP3
Продолжительность : 42 м. 4 с.
Вид битрейта : Постоянный
Битрейт : 128 Кбит/сек
Каналы : 2 канала
Частота : 48,0 КГц
Частота кадров : 41,667 кадра/сек (1152 SPF)
Метод сжатия : С потерями
Размер потока : 38,5 Мбайт (7%)
Выравнивание : Соединение по промежуткам
Продолжительность промежутка : 40 мс. (1,00 видеокадр)
Время предзагрузки промежутка : 504 мс.
Библиотека кодирования : LAME3.98r
Настройки программы : -m s -V 4 -q 2 -lowpass 17 -b 128

Аудио #2
Идентификатор : 2
Формат : MPEG Audio
Версия формата : Version 1
Профиль формата : Layer 3
Настройки формата : Joint stereo / MS Stereo
Идентификатор кодека : 55
Идентификатор кодека/Подсказка : MP3
Продолжительность : 42 м. 4 с.
Вид битрейта : Постоянный
Битрейт : 128 Кбит/сек
Каналы : 2 канала
Частота : 48,0 КГц
Метод сжатия : С потерями
Размер потока : 38,5 Мбайт (7%)
Выравнивание : Соединение по промежуткам
Продолжительность промежутка : 40 мс. (1,00 видеокадр)
Время предзагрузки промежутка : 504 мс.

скриншот  скриншот  скриншот  

Внимание! Раздача ведётся путём добавления новых серий; при каждом добавлении создаётся новый торрент. Чтобы начать докачку новой серии, пользователям необходимо сделать следующее:
(1) остановить скачивание,
(2) удалить старый торрент у себя из клиента (старые серии удалять не надо),
(3) скачать новый торрент и запустить его у себя в клиенте вместо старого, при этом указать клиенту путь в старую папку куда и должно происходить скачивание новых серий.

Ваш клиент при этом должен произвести хеширование (проверку) старой папки (если не производит сам - помогите ему сделать это), и будет докачивать только те серии которых у вас ещё нет. Старые серии при этом не удаляются, а продолжают раздаваться!

Eсли вы уже удалили старые серии, то предотвратить повторную закачку старых серий можно, отжав галочку в соответствующих местах при запуске нового торрента. По возможности, желательно не удалять старые серии как можно дольше чтобы релизёр не столько продолжал раздавать старые серии, а смог сконцентрироваться на новых.



Скачать Страна приливов через торрент https://i107.fastpic.ru/big/2018/1215/5e/428dd14e257f02253c511d7ebb03855e.jpg Скачать фильм Страна приливов через торрент бесплантно в хорошем качестве Описание: Бывшая преступница возвращается домой в маленькую деревеньку Орфелин Бэй. Спокойной жизни не суждено состояться: вскоре ... 10 10 1
Торрент: Зарегистрирован [2019-01-11 12:44] · скачан: 9 раз
Статус: √ проверено
Размер: 4.15 GB
Как cкачать? Как скачать Страна приливов через торрент | qTorrent

% Раздел Тема Автор DL S | L
Зарубежные сериалы [ 13.79 GB ] Страна приливов / Tidelands / Сезон 1 / Серии 1-8 [2018 WEB-DL 1080p] [MVO] killermax2013 Скачать
1 | 0
Зарубежные сериалы [ 15.1 GB ] Страна приливов / Tidelands / Сезон 1 / Серии 1-8 [2018 WEB-DL 1080p] [MVO] killermax2013 Скачать
1 | 0
Зарубежные сериалы [ 3.2 GB ] Страна приливов / Tidelands / Сезон 1 / Серии 1-8 [2018 WEBRip] [MVO] killermax2013 Скачать
3 | 0
Зарубежные сериалы [ 14.84 GB ] Страна приливов / Tidelands / Сезон 1 / Серии 1-8 [2018 WEBRip 1080p] [MVO] killermax2013 Скачать
1 | 0
Зарубежные сериалы [ 12.59 GB ] Страна приливов / Tidelands / Сезон 1 / Серии 1-8 [2018 WEBRip 1080p] [MVO] killermax2013 Скачать
1 | 0
Зарубежные сериалы [ 12.29 GB ] Страна приливов / Tidelands / Сезон 1 / Серии 1-8 [2018 WEBRip 1080p] [Sub Rus] killermax2013 Скачать
2 | 0


>> Регистрируемся здесь <<






Отзывы и комментарии о схеме читаем и пишем здесь: ---> Отзывы и комментарии о схеме

Новые благодарочки в телеграм довольных пользователей:
скриншот   скриншот   скриншот   скриншот   скриншот
    Дорогой пользователь! Огромная просьба, поблагодарите релизера, оцените раздачу и оставьте свои комментарий, если Вы скачали Страна приливов через торрент бесплатно! Внесите свою лепту в развитие PiratBit!
    Комментировать посты могут только пользователи прошедшие не сложную регистрацию
    Показать сообщения:    

    Страна приливов через торрент
    Скачать бесплатно Страна приливов
    Страна приливов скачать торрент
    Страна приливов смотреть онлайн
    Cкачать фильм Страна приливов бесплатно
    Страна приливов скачать торрент в хорошем качестве
    Страна приливов смотреть онлайн бесплатно в хорошем качестве


    Вы не можете начинать темы
    Вы не можете отвечать на сообщения
    Вы не можете редактировать свои сообщения
    Вы не можете удалять свои сообщения
    Вы не можете голосовать в опросах
    Вы не можете прикреплять файлы к сообщениям
    Вы можете скачивать файлы