ВНИМАНИЕ!!! Роскомнадзор заблокировал pb.wtf в РФ навсегда, просьба установить наш плагин который откроет доступ из РФ, для Хром, Ябраузер, Опера -> Mozilla FireFox и перейти на pb.wtf. о плагине

Лицензия

30

MVO

Как приручить дракона 3

11 сезон

1

1 сезон

гринч

iTunes

Стекло

iTunes

Клаустрофобы

8 сезон

Игра престолов

iTunes

Ральф против интернета Хит недели

ИГРА 18+

pack

ВАЖНО

!!Акция!!

Alien_RageХит недели

RePack

Resident Evil 21
pack

RePack

Metro:Exodus

!!Акция!!

Alien_Rage

RePack

fifa19

RePack

Assassins Creed: Odyssey

RePack

NEED FOR SPEED™ PAYBACK

3 сезон

9 сезон

Бесстыжие 9 сезон

Все сериалы

все сериалы на PB.wtf

RePack

FAR CRY 5
Ребята, критически не успеваем дособрать 3200р. для оплаты серверов за Март (всвязи с блокировками трафик упал в 3 раза), 1-2р., выручайте.
  

Французский попутчик (Алексей Феоктистов) [2017, боевик, WEB-DL 1080p] pb.wtf

Французский попутчик через торрент pb.wtf

Раздают: 2 [ 0 KB/s ]
Размер: 3.21 GB | Добавлен: 3 мес. 14 д. назад | Торрент скачан:153 раза
Скачать  

10-01-2019 12:17 Французский попутчик Скачать торрент  

Французский попутчик Год выпуска: 2017
Страна: Россия
Жанр: боевик
Продолжительность: 01:26:46
Перевод: Не требуется
Субтитры: отсутствуют

Режиссер: Алексей Феоктистов



В ролях:

Кирилл Плетнёв, Мария Андреева, Надежда Жарычева, Борис Клюев, Олег Карин

Описание:

Студентка Елена Михалушкина летит в другую страну на опознание отца, погибшего в авиакатастрофе. Еще в российском аэропорту она знакомится с Андреем Егоровым, который уже несколько лет живет и работает за границей и возвращается теперь туда. Молодой человек вызывается помочь хорошенькой девушке, которая не знает языка и совсем одна в незнакомой стране. Он сопровождает ее в госпиталь и в гостиницу. После того как они расстаются у отеля, Андрей становится свидетелем того, как на Елену нападают неизвестные и пытаются похитить ее. Егоров бросается ей на помощь и расправляется с нападавшими. Андрей с Леной пытаются понять, кому и что нужно от девушки. Но вопросов больше, чем ответов... Андрею еще не раз придется спасать Елену. Но преступникам все же удастся осуществить свою цель и похитить Елену, причем уже в России, куда Егоров вывезет девушку. Теперь Андрей должен вырвать Лену, которую уже успел полюбить, из лап злодеев. Он обязан это сделать еще и потому, что их последняя встреча закончилась ссорой. Девушка начала догадываться, что Андрей не просто так оказался рядом с ней в самолете - он совсем не тот, за кого себя выдает...

Качество: WEB-DL 1080p
Формат: MKV

Видео: 1920x1080 (16:9), 25.000 fps, MPEG-4 AVC ~5 111 kbps avg
Аудио: 48.0 kHz, AC3 Dolby Digital, 2/0 (L,R) ch, ~192 kbps
скриншот  скриншот  скриншот  

Media Info
General
Unique ID : 196976813689353028604182914427031680804 (0x94305AB8DF5EA5368382101BB9F47724)
Complete name : Francuzskiy.poputchik.2017.WEB-DL.(1080p).Getty.mkv
Format : Matroska
Format version : Version 4 / Version 2
File size : 3.21 GiB
Duration : 1 h 26 min
Overall bit rate : 5 305 kb/s
Movie name : Francuzskiy.poputchik.2017.WEB-DL.(1080p).Getty
Encoded date : UTC 2019-01-09 20:24:56
Writing application : mkvmerge v7.8.0 ('River Man') 32bit built on Mar 27 2015 16:18:02
Writing library : libebml v1.3.1 + libmatroska v1.4.2

Video
ID : 1
Format : AVC
Format/Info : Advanced Video Codec
Format profile : High@L4
Format settings : CABAC / 4 Ref Frames
Format settings, CABAC : Yes
Format settings, ReFrames : 4 frames
Codec ID : V_MPEG4/ISO/AVC
Duration : 1 h 26 min
Bit rate : 5 111 kb/s
Width : 1 920 pixels
Height : 1 080 pixels
Display aspect ratio : 16:9
Frame rate mode : Constant
Frame rate : 25.000 FPS
Color space : YUV
Chroma subsampling : 4:2:0
Bit depth : 8 bits
Scan type : Progressive
Bits/(Pixel*Frame) : 0.099
Stream size : 3.10 GiB (96%)
Default : Yes
Forced : No

Audio
ID : 2
Format : AC-3
Format/Info : Audio Coding 3
Codec ID : A_AC3
Duration : 1 h 26 min
Bit rate mode : Constant
Bit rate : 192 kb/s
Channel(s) : 2 channels
Channel positions : Front: L R
Sampling rate : 48.0 kHz
Frame rate : 31.250 FPS (1536 SPF)
Bit depth : 16 bits
Compression mode : Lossy
Stream size : 119 MiB (4%)
Service kind : Complete Main
Default : Yes
Forced : No

pb.wtf



Скачать Французский попутчик через торрент http://b.radikal.ru/b12/1901/82/9c117bb49104.png Скачать фильм Французский попутчик через торрент бесплантно в хорошем качестве Описание: Студентка Елена Михалушкина летит в другую страну на опознание отца, погибшего в авиакатастрофе. Еще в российском аэропорту она ... 9.7 10 7
Торрент: Зарегистрирован [2019-01-10 12:17] · скачан: 153 раз
Статус: √ проверено
Размер: 3.21 GB
Как cкачать? Как скачать Французский попутчик через торрент | qTorrent

% Раздел Тема Автор DL S | L
Наши новые фильмы 2017 [ 1.37 GB ] Французский попутчик [2016 WEB-DLRip-AVC] bober100 Скачать
1 | 0
Наши новые фильмы 2017 [ 1.36 GB ] Французский попутчик [2017 WEB-DLRip] bober100 Скачать
2 | 0


>> Регистрируемся здесь <<






Отзывы и комментарии о схеме читаем и пишем здесь: ---> Отзывы и комментарии о схеме

Новые благодарочки в телеграм довольных пользователей:
скриншот   скриншот   скриншот   скриншот   скриншот

11-01-2019 13:39 Французский попутчик Скачать торрент  

шляпио?pb.wtf



    Дорогой пользователь! Огромная просьба, поблагодарите релизера, оцените раздачу и оставьте свои комментарий, если Вы скачали Французский попутчик через торрент бесплатно! Внесите свою лепту в развитие PiratBit!
    Комментировать посты могут только пользователи прошедшие не сложную регистрацию
    Показать сообщения:    

    Французский попутчик через торрент
    Скачать бесплатно Французский попутчик
    Французский попутчик скачать торрент
    Французский попутчик смотреть онлайн
    Cкачать фильм Французский попутчик бесплатно
    Французский попутчик скачать торрент в хорошем качестве
    Французский попутчик смотреть онлайн бесплатно в хорошем качестве


    Вы не можете начинать темы
    Вы не можете отвечать на сообщения
    Вы не можете редактировать свои сообщения
    Вы не можете удалять свои сообщения
    Вы не можете голосовать в опросах
    Вы не можете прикреплять файлы к сообщениям
    Вы можете скачивать файлы