Ссылка на приватное зеркало всего за 1$. Внимание количество ограничено!!!

OK

1+1

iTunes

мы

OK

1

WEB-DLRip

Джокер

Пифагор

Ведьмак / The Witcher сериал

iTunes

ПШазам

ОК

Оно 2

iTunes

30
pack

Вам бонус

ВАЖНО

!!Акция!!

Alien_RageХит недели

RePack

Resident Evil 21

ИГРА 18+

pack

RePack

jed

RePack

fifa19

RePack

Assassins Creed: Odyssey

RePack

NEED FOR SPEED™ PAYBACK

4 сезон

9 сезон

Бесстыжие 9 сезон

Все сериалы

все сериалы на PB.wtf

RePack

FAR CRY 5
  

Опасный брак / Dangerous Matrimony (Майкл Фейфер) [2018 г., Триллер, драма, детектив, HDTVRip, Любительский (многоголосый)(Синема УС)] pb.wtf

Опасный брак через торрент pb.wtf

Размер: 1.31 GB | Добавлен: 1 год назад | Торрент скачан:136 раз
Скачать  

11-01-2019 04:55 Опасный брак Скачать торрент  

Опасный брак / Dangerous Matrimony
Год выпуска: 2018
Страна: США
Жанр: Триллер, драма, детектив
Продолжительность: 01:21:41
Перевод: Любительский (многоголосый)(Синема УС)
Субтитры: Отсутствуют

Режиссер: Майкл Фейфер

Премьера в мире: 26 октября 2018

rating

В ролях: Эмили О'Брайэн, Роб Майес, Сабина Гадеки, Донта Таннер, Мэтт Галлини, Челси Рикеттс, Жаклин Лорд, Брок Барнетт

Описание: Молодожёны Дэвид и Бриджет отправляются в путешествие на яхте, однако, их отдых омрачает тот факт, что жениха похищают пираты и требуют за него выкуп. Вести переговоры с похитителями придётся Порше, рассудительной помощнице Дэвида, которой необходимо выяснить, кто стоит за столь ужасным преступлением.

Доп. информация: Присутствуют вставки текстовой рекламы

Качество: HDTVRip
Формат: AVI
Видео кодек: XviD
Аудио кодек: AC3
Видео: XviD, 720x400, ~1905 Kbps
Аудио#1: AC-3, 2 ch, 384 Kbps
скриншот   скриншот   скриншот   скриншот  

Общее
Полное имя : E:\NNM\Опасный брак\Dangerous Matrimony 2018 HDTVRip.avi
Формат : AVI
Формат/Информация : Audio Video Interleave
Профиль формата : OpenDML
Размер файла : 1,31 Гбайт
Продолжительность : 1 ч. 21 м.
Общий поток : 2301 Кбит/сек

Видео
Идентификатор : 0
Формат : MPEG-4 Visual
Профиль формата : Advanced Simple@L5
Настройки формата : BVOP2 / Custom Matrix
Параметр BVOP формата : 2
Параметр QPel формата : Нет
Параметр GMC формата : Без точки перехода
Параметр матрицы формата : Выборочная
Идентификатор кодека : XVID
Идентификатор кодека/Подсказка : XviD
Продолжительность : 1 ч. 21 м.
Битрейт : 1905 Кбит/сек
Ширина : 720 пикселей
Высота : 400 пикселей
Соотношение сторон : 16:9
Частота кадров : 23,976 (24000/1001) кадра/сек
Цветовое пространство : YUV
Субдискретизация насыщенности : 4:2:0
Битовая глубина : 8 бит
Тип развёртки : Прогрессивная
Метод сжатия : С потерями
Бит/(Пиксели*Кадры) : 0.276
Размер потока : 1,09 Гбайт (83%)
Библиотека кодирования : XviD 1.2.1 (UTC 2008-12-04)

Аудио
Идентификатор : 1
Формат : AC-3
Формат/Информация : Audio Coding 3
Идентификатор кодека : 2000
Продолжительность : 1 ч. 21 м.
Вид битрейта : Постоянный
Битрейт : 384 Кбит/сек
Каналы : 2 канала
Расположение каналов : Front: L R
Частота : 48,0 КГц
Частота кадров : 31,250 кадров/сек (1536 SPF)
Битовая глубина : 16 бит
Метод сжатия : С потерями
Размер потока : 224 Мбайт (17%)
Выравнивание : Соединение по промежуткам
Продолжительность промежутка : 32 мс. (0,77 видеокадр)
ServiceKind/String : Complete Main

pb.wtf



Скачать Опасный брак через торрент http://pic1.kartinco.top/images/12/3m4dl.jpg Скачать фильм Опасный брак через торрент бесплантно в хорошем качестве Описание: Молодожёны Дэвид и Бриджет отправляются в путешествие на яхте, однако, их отдых омрачает тот факт, что жениха похищают пираты и ... 9.7 10 3
Торрент: Зарегистрирован [2019-01-11 04:55] · скачан: 136 раз
Статус: T временная
Размер: 1.31 GB
Как cкачать? Как скачать Опасный брак через торрент | qTorrent

28-11-2019 20:33  

Отключить всю рекламу на сайте

11-01-2019 05:27 Опасный брак Скачать торрент  

Брак всегда опасное дело.
Почините уведомленияpb.wtf



    Дорогой пользователь! Огромная просьба, поблагодарите релизера, оцените раздачу и оставьте свои комментарий, если Вы скачали Опасный брак через торрент бесплатно! Внесите свою лепту в развитие PiratBit!
    Комментировать посты могут только пользователи прошедшие не сложную регистрацию
    Показать сообщения:    

    Опасный брак через торрент
    Скачать бесплатно Опасный брак
    Опасный брак скачать торрент
    Опасный брак смотреть онлайн
    Cкачать фильм Опасный брак бесплатно
    Опасный брак скачать торрент в хорошем качестве
    Опасный брак смотреть онлайн бесплатно в хорошем качестве


    Вы не можете начинать темы
    Вы не можете отвечать на сообщения
    Вы не можете редактировать свои сообщения
    Вы не можете удалять свои сообщения
    Вы не можете голосовать в опросах
    Вы не можете прикреплять файлы к сообщениям
    Вы можете скачивать файлы