Ссылка на приватное зеркало нашего сайта всего за 1$. Внимание количество ограничено!!!

2 сезон

iTunes

1 сезон

1

2 сезон

2 сезон

iTunes

1 сезон

RePack

30

Новинка

ВАЖНО

ИГРА 18+

pack

RePack

MK11
pack

Забери бонус

RePack

jed

!!Акция!!

Alien_Rage

RePack

fifa19

RePack

Assassins Creed: Odyssey

RePack

NEED FOR SPEED™ PAYBACK

4 сезон

9 сезон

Бесстыжие 9 сезон

Все сериалы

все сериалы на PB.wtf

RePack

FAR CRY 5
  

Доктор Кто / Doctor Who / Сезон: 12 / Серии: 0 из 10 (Стивен Моффат) [2018, Приключения, фантастика, комедия, WEB-DL 1080p] MVO [Jaskier] pb.wtf

Доктор Кто через торрент pb.wtf

Размер: 2.44 GB | Добавлен: 1 год 10 мес. назад | Торрент скачан:20 раз
Скачать  

11-01-2019 05:49 Доктор Кто Скачать торрент  

Доктор Кто | Doctor Who • Год выпуска: 2017-2018
• Страна: Великобритания
• Жанр: приключения, фантастика, комедия
• Продолжительность: ~ 01:08:00
• Перевод: Профессиональный (многоголосый закадровый) | Jaskier
• Субтитры: английские

• Режиссёр: Бен Уитли, Пол Мёрфи, Даглас Маккиннон, Пол Уилмсхёрст

• В ролях:

Питер Капальди, Мэтт Лукас, Джастин Чэтвин и др.

• Описание:

Сериал отображает приключения мистического инопланетянина-гуманоида называющего себя Доктор, без цели путешествующего через время и пространство в космическом корабле, который снаружи выглядит как полицейская будка 50-х годов. Доктор чрезвычайно эксцентричен и имеет невероятные знания в областях технологии, истории и науки. Он путешествует вместе со своими компаньонами, попутно борясь против космических злодеев и спасая Землю от бесчисленных врагов.



• Качество: WEB-DL 1080p
• Формат: MKV

• Видео: 1920x960, (2,000) | X264/MPEG4-AVC | ~5000 kbps | 25 fps
• Аудио 1: AC3 | 48 KHz | 5.1 (Front: L С R Side: L R) + LFE | ~384 kbps [RUS]
• Аудио 2: AC3 | 48 KHz | 5.1 (Front: L С R Side: L R) + LFE | ~384 kbps [ENG]


Реклама: Присутствует звуковая (два раза в начале и конце по 10 сек.)
Переведено и озвучено студией JASKIER
Общее
Уникальный идентификатор                 : 193277227641788549065222637487229158847 (0x9167D70C19059FE5B3304C1E9D7EC5BF)
Полное имя                               : G:\Загрузки\Doctor.Who.S12E00.1080p.AMZN.WEB-DL.DDP5.1.x264-Jaskier.mkv
Формат                                   : Matroska
Версия формата                           : Version 2
Размер файла                             : 2,44 Гбайт
Продолжительность                        : 1 ч. 0 м.
Общий поток                              : 5812 Кбит/сек
Дата кодирования                         : UTC 2019-01-10 19:27:14
Программа кодирования                    : mkvmerge v7.8.0 ('River Man') 32bit built on Apr  3 2015 12:11:22
Библиотека кодирования                   : libebml v1.3.1 + libmatroska v1.4.2

Видео
Идентификатор                            : 1
Формат                                   : AVC
Формат/Информация                        : Advanced Video Codec
Профиль формата                          : High@L4
Настройки формата                        : CABAC / 4 Ref Frames
Параметр CABAC формата                   : Да
Параметр RefFrames формата               : 4 кадра
Идентификатор кодека                     : V_MPEG4/ISO/AVC
Продолжительность                        : 1 ч. 0 м.
Битрейт                                  : 4928 Кбит/сек
Ширина                                   : 1920 пикселей
Высота                                   : 960 пикселей
Соотношение сторон                       : 2,000
Режим частоты кадров                     : Постоянный
Частота кадров                           : 25,000 кадров/сек
Цветовое пространство                    : YUV
Субдискретизация насыщенности            : 4:2:0
Битовая глубина                          : 8 бит
Тип развёртки                            : Прогрессивная
Бит/(Пиксели*Кадры)                      : 0.107
Размер потока                            : 2,07 Гбайт (85%)
Язык                                     : English
Default                                  : Да
Forced                                   : Нет
Цветовой диапазон                        : Limited
Основные цвета                           : BT.709
Характеристики трансфера                 : BT.709
Коэффициенты матрицы                     : BT.709

Аудио #1
Идентификатор                            : 2
Формат                                   : AC-3
Формат/Информация                        : Audio Coding 3
Коммерческое название                    : Dolby Digital
Идентификатор кодека                     : A_AC3
Продолжительность                        : 1 ч. 0 м.
Вид битрейта                             : Постоянный
Битрейт                                  : 384 Кбит/сек
Каналы                                   : 6 каналов
Channel layout                           : L R C LFE Ls Rs
Частота                                  : 48,0 КГц
Частота кадров                           : 31,250 кадров/сек (1536 SPF)
Битовая глубина                          : 16 бит
Метод сжатия                             : С потерями
Размер потока                            : 165 Мбайт (7%)
Заголовок                                : Jaskier
Язык                                     : Russian
ServiceKind/String                       : Complete Main
Default                                  : Да
Forced                                   : Нет

Аудио #2
Идентификатор                            : 3
Формат                                   : AC-3
Формат/Информация                        : Audio Coding 3
Коммерческое название                    : Dolby Digital
Идентификатор кодека                     : A_AC3
Продолжительность                        : 1 ч. 0 м.
Вид битрейта                             : Постоянный
Битрейт                                  : 384 Кбит/сек
Каналы                                   : 6 каналов
Channel layout                           : L R C LFE Ls Rs
Частота                                  : 48,0 КГц
Частота кадров                           : 31,250 кадров/сек (1536 SPF)
Битовая глубина                          : 16 бит
Метод сжатия                             : С потерями
Размер потока                            : 165 Мбайт (7%)
Язык                                     : English
ServiceKind/String                       : Complete Main
Default                                  : Нет
Forced                                   : Нет

Текст
Идентификатор                            : 4
Формат                                   : UTF-8
Идентификатор кодека                     : S_TEXT/UTF8
Идентификатор кодека/Информация          : UTF-8 Plain Text
Язык                                     : English
Default                                  : Нет
Forced                                   : Нет

Меню
00:00:00.000                             : en:Studio Logo
00:00:07.000                             : en:An army of enemies came together to face an impossible opponent
00:02:19.000                             : en:Scientists dig up what should have stayed hidden
00:06:07.000                             : en:The Doctor's Earth alarm goes off
00:07:37.000                             : en:These are no ordinary artifacts
00:11:33.000                             : en:Ryan receives an unexpected visitor
00:14:27.000                             : en:Lin brought something home from the sewers
00:20:06.000                             : en:Ryan tells his dad how he's been doing
00:24:55.000                             : en:Things are worse than The Doctor expected
00:29:04.000                             : en:The Doctor sends a message to the scout
00:33:14.000                             : en:The Doctor calls for backup
00:35:31.000                             : en:Graham has a lesson for Aaron
00:37:25.000                             : en:Lin holds on to her strength
00:39:25.000                             : en:This time it's personal
00:44:39.000                             : en:The Dalek displays it's power
00:49:48.000                             : en:The Dalek attempts to boost it's signal
00:51:37.000                             : en:The Doctor miscalculated
00:55:08.000                             : en:An army of unlikely friends came together to face an opponent
00:59:17.000                             : en:End Credits
скриншот  скриншот  скриншот  
Когда раздача ведётся путём добавления новых серий, при каждом добавлении создётся новый торрент. Чтобы начать докачку новой серии, пользователям необходимо сделать следующее:
(1) остановить скачивание,
(2) удалить старый торрент у себя из клиента (старые серии удалять не надо),
(3) скачать новый торрент и запустить его у себя в клиенте вместо старого, при этом указать клиенту путь в старую папку, куда и должно происходить скачивание новых серий.
Ваш клиент при этом должен произвести хеширование (проверку) старой папки (если не производит сам - помогите ему сделать это), и будет докачивать только те серии, которых у вас ещё нет. Старые серии при этом не удаляются, а продолжают раздаваться!
Eсли вы уже удалили старые серии, то предотвратить повторную закачку старых серий можно, отжав галочку в соответсвующих местах при запуске нового торрента. По возможности, желательно не удалять старые серии как можно дольше, чтобы релизёр не столько продолжал раздавать старые серии, а смог сконцентрироваться на новых.
pb.wtf



Скачать Доктор Кто через торрент http://img10.lostpic.net/2018/10/09/03a1407c52799f40a6210ac6eec88327.png Скачать фильм Доктор Кто через торрент бесплантно в хорошем качестве Описание: Сериал отображает приключения мистического инопланетянина-гуманоида называющего себя Доктор, без цели путешествующего через время ... 10 10 2
Торрент: Зарегистрирован [2019-01-11 05:49] · скачан: 20 раз
Статус: √ проверено
Размер: 2.44 GB
Как cкачать? Как скачать Доктор Кто через торрент | qTorrent

% Раздел Тема Автор DL S | L
Зарубежные сериалы [ 32.81 GB ] Доктор Кто / Doctor Who / Сезон: 12 / Серии: 0-10 из 10 [2020 WEB-DL 1080p] MVO [Jaskier] bober100 Скачать
2 | 0
Зарубежные сериалы [ 17.2 GB ] Доктор Кто / Doctor Who / Сезон: 12 / Серии: 0-10 из 10 [2020 WEB-DL 720p] MVO [Jaskier] bober100 Скачать
1 | 0
Зарубежные сериалы [ 6.96 GB ] Доктор Кто / Doctor Who / Сезон: 12 / Серии: 0-10 из 10 [2020 WEB-DLRip] MVO [Jaskier] bober100 Скачать
1 | 0
Зарубежные сериалы [ 751 MB ] Доктор Кто / Doctor Who / Сезон: 12 / Серии: 0 из 10 [2018 WEB-DLRip] MVO [Jaskier] bober100 Скачать
1 | 0

28-11-2019 20:33  

Отключить всю рекламу на сайте

11-01-2019 18:29 Доктор Кто Скачать торрент  

Так это 12 сезон, или 11? Почему на обложке написано 11?pb.wtf



    Дорогой пользователь! Огромная просьба, поблагодарите релизера, оцените раздачу и оставьте свои комментарий, если Вы скачали Доктор Кто через торрент бесплатно! Внесите свою лепту в развитие PiratBit!
    Комментировать посты могут только пользователи прошедшие не сложную регистрацию
    Показать сообщения:    

    Доктор Кто через торрент
    Скачать бесплатно Доктор Кто
    Доктор Кто скачать торрент
    Доктор Кто смотреть онлайн
    Cкачать фильм Доктор Кто бесплатно
    Доктор Кто скачать торрент в хорошем качестве
    Доктор Кто смотреть онлайн бесплатно в хорошем качестве


    Вы не можете начинать темы
    Вы не можете отвечать на сообщения
    Вы не можете редактировать свои сообщения
    Вы не можете удалять свои сообщения
    Вы не можете голосовать в опросах
    Вы не можете прикреплять файлы к сообщениям
    Вы можете скачивать файлы