Всегда рабочее зеркало без VPN и Proxy просто перед .vidak.icu напиши любое слово или цифру, Пример http://lyrk.vidak.icu

MVO

2 сезон

1 сезон

1

1 сезон

iTunes

2 сезон

13

1 сезон

Deluxe

pack

Рекомендуем

Пиратка

30

ВАЖНО

RePack

MK11

RePack

jed

RePack

fifa19

RePack

RDR2

RePack

NEED FOR SPEED™ PAYBACK

Кинопоиск HD

6 сезон

 Острые козырьки 6 сезон

Все сериалы

все сериалы на PB.wtf

RePack

FAR CRY 5

Anonymous, нам критически не хватает 5601 руб. на оплату серверов и переферии за Апрель, помоги нам пожалуйста, вся надежда только на тебя. В благодарность мы отключим тебе всю рекламу на сайте!

×
  
Magnet ссылка

Иллюзия обмана / Now You See Me (Луи Летерье) [2013 г., Триллер, Криминал, Детектив, BDRip 1080p, HEVC, Дубляж] [Extended Edition] pb.wtf

Иллюзия обмана через торрент pb.wtf

Размер: 8.98 GB | Добавлен: 3 года 4 мес. назад | Торрент скачан:141 раз
Смотреть онлайн Иллюзия обмана | Скачать    Ребята, помогите собрать деньги на оплату серверов!!!

11-01-2019 07:04 Иллюзия обмана Скачать торрент  

Иллюзия обмана / Now You See Me
Год выпуска: 2013
Страна: США, Франция
Жанр: Триллер, Криминал, Детектив
Продолжительность: 02:04:48
Перевод: Дубляж+ (авторский на расширенные сцены)
Субтитры: Русские, английские

Режиссер: Луи Летерье

rating

В ролях: Марк Руффало, Джесси Айзенберг, Вуди Харрельсон, Айла Фишер, Дэйв Франко, Мелани Лоран, Морган Фриман, Майкл Кейн, Майкл Келли, Коммон

Описание: Команда лучших иллюзионистов мира проворачивает дерзкие ограбления прямо во время своих шоу, играя в кошки-мышки с агентами ФБР.
Доп. информация: -
H.265/HEVC (High Efficiency Video Coding) - это новый стандарт кодирования видео.
- Стандарт H.265/HEVC является логическим продолжением стандарта
H.264/AVC (Advanced Video Coding), и характеризуется более эффективными
алгоритмами сжатия, а также поддержкой высокого разрешения вплоть до 8K UHD
(8192x4320). Первая версия стандарта H.265 была опубликована в начале 2013 года.
- Рипы в фомате HEVC поддерживается не всеми аппаратными проигрывателями.
- Для корректного воспроизведения может потребоваться обновление ПО.
- Владельцам несовместимого железа просьба не беспокоить,
есть альтернативные релизы.
Качество: BDRip 1080p
Формат: MKV
Видео кодек: H.265
Аудио кодек: AC3
Видео: 1920x800, ~9207 Kbps
Аудио#1: AC3, 6 ch, 448 Kbps - Дублированный + AVO (Сербин, на расширенные сцены)
Аудио#2: AC3, 6 ch, 640 Kbps - Английский


Общее
Уникальный идентификатор : 187550367286925003666681339973492622485 (0x8D18E308332FF29AB3DE897356554495)
Полное имя : F:\РАЗДАЧИ\Иллюзия обмана (1080p) Extended Edition HEVC.mkv
Формат : Matroska
Версия формата : Version 4 / Version 2
Размер файла : 8,98 Гбайт
Продолжительность : 2 ч. 4 м.
Общий поток : 10,3 Мбит/сек
Дата кодирования : UTC 2016-10-22 16:50:16
Программа кодирования : mkvmerge v9.2.0 ('Photograph') 64bit
Библиотека кодирования : libebml v1.3.3 + libmatroska v1.4.4

Видео
Идентификатор : 1
Формат : HEVC
Формат/Информация : High Efficiency Video Coding
Профиль формата : Main@L4@Main
Идентификатор кодека : V_MPEGH/ISO/HEVC
Продолжительность : 2 ч. 4 м.
Битрейт : 9207 Кбит/сек
Ширина : 1920 пикселей
Высота : 800 пикселей
Соотношение сторон : 2,40:1
Режим частоты кадров : Постоянный
Частота кадров : 23,976 (24000/1001) кадра/сек
Цветовое пространство : YUV
Субдискретизация насыщенности : 4:2:0
Битовая глубина : 8 бит
Бит/(Пиксели*Кадры) : 0.250
Размер потока : 8,03 Гбайт (89%)
Библиотека кодирования : x265 2.1+25-0e9e52640546:[Windows][GCC 5.3.1][64 bit] 8bit
Настройки программы : wpp / ctu=64 / min-cu-size=8 / max-tu-size=32 / tu-intra-depth=1 / tu-inter-depth=1 / me=2 / subme=5 / merange=57 / no-rect / no-amp / max-merge=5 / temporal-mvp / no-early-skip / rskip / rdpenalty=0 / no-tskip / no-tskip-fast / strong-intra-smoothing / no-lossless / no-cu-lossless / no-constrained-intra / no-fast-intra / open-gop / no-temporal-layers / interlace=0 / keyint=250 / min-keyint=23 / scenecut=40 / rc-lookahead=60 / lookahead-slices=0 / bframes=8 / bframe-bias=0 / b-adapt=2 / ref=5 / limit-refs=3 / no-limit-modes / weightp / weightb / aq-mode=0 / qg-size=64 / aq-strength=0.00 / cbqpoffs=0 / crqpoffs=0 / rd=3 / psy-rd=2.00 / rdoq-level=2 / psy-rdoq=1.80 / log2-max-poc-lsb=8 / limit-tu=0 / no-rd-refine / signhide / deblock=-3:-3 / no-sao / no-sao-non-deblock / b-pyramid / no-cutree / no-intra-refresh / rc=2 / pass / bitrate=9216 / qcomp=0.80 / qpmin=0 / qpmax=69 / qpstep=4 / cplxblur=20.0 / qblur=0.5 / ipratio=1.40 / pbratio=1.30
Default : Да
Forced : Нет

Аудио #1
Идентификатор : 2
Формат : AC-3
Формат/Информация : Audio Coding 3
Идентификатор кодека : A_AC3
Продолжительность : 2 ч. 4 м.
Вид битрейта : Постоянный
Битрейт : 448 Кбит/сек
Каналы : 6 каналов
Расположение каналов : Front: L C R, Side: L R, LFE
Частота : 48,0 КГц
Частота кадров : 31,250 кадров/сек (1536 SPF)
Битовая глубина : 16 бит
Метод сжатия : С потерями
Размер потока : 400 Мбайт (4%)
Заголовок : Дублированный + Ю.Сербин
Язык : Russian
ServiceKind/String : Complete Main
Default : Да
Forced : Нет

Аудио #2
Идентификатор : 3
Формат : AC-3
Формат/Информация : Audio Coding 3
Идентификатор кодека : A_AC3
Продолжительность : 2 ч. 4 м.
Вид битрейта : Постоянный
Битрейт : 640 Кбит/сек
Каналы : 6 каналов
Расположение каналов : Front: L C R, Side: L R, LFE
Частота : 48,0 КГц
Частота кадров : 31,250 кадров/сек (1536 SPF)
Битовая глубина : 16 бит
Метод сжатия : С потерями
Размер потока : 571 Мбайт (6%)
Язык : English
ServiceKind/String : Complete Main
Default : Нет
Forced : Нет

Текст #1
Идентификатор : 4
Формат : UTF-8
Идентификатор кодека : S_TEXT/UTF8
Идентификатор кодека/Информация : UTF-8 Plain Text
Продолжительность : 1 ч. 56 м.
Битрейт : 133 бит/сек
ElementCount : 1844
Размер потока : 113 Кбайт (0%)
Язык : Russian
Default : Нет
Forced : Нет

Текст #2
Идентификатор : 5
Формат : UTF-8
Идентификатор кодека : S_TEXT/UTF8
Идентификатор кодека/Информация : UTF-8 Plain Text
Продолжительность : 1 ч. 56 м.
Битрейт : 76 бит/сек
ElementCount : 2074
Размер потока : 64,8 Кбайт (0%)
Язык : English
Default : Нет
Forced : Нет

Меню
00:00:00.000 : en:00:00:00.000
00:08:26.548 : en:00:08:26.548
00:14:41.923 : en:00:14:41.923
00:21:25.868 : en:00:21:25.868
00:32:02.003 : en:00:32:02.003
00:39:29.158 : en:00:39:29.158
00:47:07.199 : en:00:47:07.199
00:56:43.441 : en:00:56:43.441
01:04:35.371 : en:01:04:35.371
01:10:23.135 : en:01:10:23.135
01:20:04.549 : en:01:20:04.549
01:29:01.002 : en:01:29:01.002
01:35:22.883 : en:01:35:22.883
01:44:06.281 : en:01:44:06.281
01:45:47.507 : en:01:45:47.507
01:54:24.607 : en:01:54:24.607

pb.wtf



Скачать Иллюзия обмана через торрент http://img15.lostpic.net/2019/01/11/1685b91cdcc33416a2eb11544b28cf5e.jpg Скачать, смотреть онлайн Иллюзия обмана бесплантно в хорошем качестве Описание: Команда лучших иллюзионистов мира проворачивает дерзкие ограбления прямо во время своих шоу, играя в кошки-мышки с агентами ... 9.1 10 10
Info! Золотая раздача, скачанное не засчитывается.
Торрент: Зарегистрирован [2019-01-11 07:07] · скачан: 141 раз
Статус: √ проверено
Размер: 8.98 GB
Как cкачать? Как скачать Иллюзия обмана через торрент | UTorrent

% Раздел Тема Автор DL S | L
Фильмы (HD 720p, 1080p) (48-60 fps) [ 4.73 GB ] Иллюзия обмана 2 / Now You See Me 2 [2016 BDRip 720p / 60 FPS ] от R.G. HD-Films slaventi-69 Скачать
1 | 0
Фильмы (HD 720p, 1080p) (48-60 fps) [ 4.47 GB ] Иллюзия обмана / Now You See Me [2013 BDRip 720p / 60 FPS + AVO] от R.G. HD-Films slaventi-69 Скачать
1 | 0
Официальные cаундтреки к зарубежным фильмам [ 233 MB ] Иллюзия обмана 2 / Now You See Me 2 2016 / MP3 / 192 kbps / SoundtrackScore BomjJamesBomj Скачать
1 | 0
Ultra HD (UHD: 2K, 4K, 8K) — видео сверхвысокой чёткости [ 57.65 GB ] Иллюзия обмана / Now You See Me [2013 UHD BDRemux 2160p] - [] sheker187 Скачать
1 | 0
Ultra HD (UHD: 2K, 4K, 8K) — видео сверхвысокой чёткости [ 57.67 GB ] Иллюзия обмана 2 / Now You See Me 2 [2016 UHD BDRemux 2160p] DUB [] bober100 Скачать
1 | 0
Фильмы с авторской озвучкой [ 1.47 GB ] Иллюзия обмана 2 / Now You See Me 2 [2016 BDRip] [AVO] killermax2013 Скачать
1 | 0
Фильмы (DVD фильмы) [ 7.53 GB ] Иллюзия обмана 2 / Now You See Me 2 [2016 DVD9] R5 voovaz Скачать
1 | 0

28-11-2019 20:33  

Отключить всю рекламу на сайте

11-01-2019 13:41 Иллюзия обмана Скачать торрент  

можно посмотреть.pb.wtf



    Дорогой пользователь! Огромная просьба, поблагодарите релизера, оцените раздачу и оставьте свои комментарий, если Вы скачали Иллюзия обмана через торрент бесплатно!
    Комментировать посты могут только пользователи прошедшие не сложную регистрацию
    Показать сообщения:    

    Иллюзия обмана через торрент
    Скачать бесплатно Иллюзия обмана
    Иллюзия обмана скачать торрент
    Иллюзия обмана смотреть онлайн
    Cкачать фильм Иллюзия обмана бесплатно
    Иллюзия обмана скачать торрент в хорошем качестве
    Иллюзия обмана смотреть онлайн бесплатно в хорошем качестве


    Вы не можете начинать темы
    Вы не можете отвечать на сообщения
    Вы не можете редактировать свои сообщения
    Вы не можете удалять свои сообщения
    Вы не можете голосовать в опросах
    Вы не можете прикреплять файлы к сообщениям
    Вы можете скачивать файлы