Ребята, если до конца года каждый наш пользователь пожертвует хотя бы 10 рублей, нам хватит денег оплатить все наши расходы.

iTunes

Хэллоуин

iTunes

venom

iTunes

Вы умрете, или мы вернем вам деньги

iTunes

iTunes

Тайна дома с часами

iTunes

Ничего хорошего в отеле «Эль рояль»

1080p

Хит недели

Лицензия

Агент Джонни Инглиш 3.0

ИГРА 18+

pack

RePack

Battlefield V

RePack

Assassins Creed: Odyssey
pack

Проголосуй

Лучший релизер 2018

RePack

Darksiders 3

iTunes 4K

venom Хит недели

RePack

fifa19

!!Акция!!

Alien_RageХит недели

RePack

NEED FOR SPEED™ PAYBACK

SATRip

9 сезон

Бесстыжие 9 сезон

Все сериалы

все сериалы на PB.wtf

iTunes

Мэнди

RePack

FAR CRY 5
  

Легенда о тайном проходе / The Legend of Secret Pass (Стив Тренберт) [2019, мультфильм, фэнтези, семейный, WEB-DL 720p] MVO ["Синема УС"]

Легенда о тайном проходе через торрент

Раздают: 4 [ 16 KB/s ]
Размер: 3.44 GB | Добавлен: 6 д. назад | Торрент скачан:82 раза
Скачать  

11-01-2019 13:02 Легенда о тайном проходе Скачать торрент  

Легенда о тайном проходе / The Legend of Secret PassГод выпуска: 2019
Страна: США
Жанр: мультфильм, фэнтези, семейный
Продолжительность: 01:32:45
Перевод: Любительский (многоголосый) | "Синема УС"
Субтитры: отсутствуют

Режиссер: Стив Тренберт

rating

В ролях:

Зои Аксельрод, Шелли Берман, Майкл Чиклис, Дэвид Кросс, Деби Дерриберри, Грэм Грин, Ким Мэй Гест, Шерил Хайнс, Билли Джонс, Гаэль МакГрегор

Описание:

Каньоны юго-запада Америки. В окрестности возвращается обладающее магией зло. Спасая от него местных животных, легендарные «громовые птицы» помогают им добраться до «тайного прохода» к мифическому убежищу...

Качество: WEB-DL 720p
Формат: MKV

Видео: h.264,4 922 Кбит/с, 1280x720
Аудио#1: Русский, (AC3, 2 ch, 384 Кбит/с)
скриншот  скриншот  скриншот  

Общее
Уникальный идентификатор : 235440644823207382143330505266513559182 (0xB1203803378481ACAC778282A98BBE8E)
Полное имя : E:\торреннты\The.Legend.Of.Secret.Pass.2018.P.WEB-DL.72Op.mkv
Формат : Matroska
Версия формата : Version 2
Размер файла : 3,44 Гбайт
Продолжительность : 1 ч. 32 м.
Режим общего битрейта : Переменный
Общий поток : 5308 Кбит/сек
Дата кодирования : UTC 2019-01-11 11:23:56
Программа кодирования : mkvmerge v8.3.0 ('Over the Horizon') 64bit
Библиотека кодирования : libebml v1.3.1 + libmatroska v1.4.2

Видео
Идентификатор : 1
Формат : AVC
Формат/Информация : Advanced Video Codec
Профиль формата : High@L4.1
Настройки формата : CABAC / 4 Ref Frames
Параметр CABAC формата : Да
Параметр RefFrames формата : 4 кадра
Идентификатор кодека : V_MPEG4/ISO/AVC
Продолжительность : 1 ч. 32 м.
Вид битрейта : Переменный
Битрейт : 4922 Кбит/сек
Максимальный битрейт : 5500 Кбит/сек
Ширина : 1280 пикселей
Высота : 720 пикселей
Соотношение сторон : 16:9
Режим частоты кадров : Постоянный
Частота кадров : 23,976 (24000/1001) кадра/сек
Стандарт вещания : Component
Цветовое пространство : YUV
Субдискретизация насыщенности : 4:2:0
Битовая глубина : 8 бит
Тип развёртки : Прогрессивная
Бит/(Пиксели*Кадры) : 0.218
Размер потока : 3,12 Гбайт (91%)
Default : Да
Forced : Нет
Цветовой диапазон : Limited
Основные цвета : BT.709
Характеристики трансфера : BT.709
Коэффициенты матрицы : BT.709

Аудио
Идентификатор : 2
Формат : AC-3
Формат/Информация : Audio Coding 3
Идентификатор кодека : A_AC3
Продолжительность : 1 ч. 32 м.
Вид битрейта : Постоянный
Битрейт : 384 Кбит/сек
Каналы : 2 канала
Расположение каналов : Front: L R
Частота : 48,0 КГц
Частота кадров : 31,250 кадров/сек (1536 SPF)
Битовая глубина : 16 бит
Метод сжатия : С потерями
Размер потока : 255 Мбайт (7%)
ServiceKind/String : Complete Main
Default : Да
Forced : Нет




Скачать Легенда о тайном проходе через торрент https://d.radikal.ru/d19/1901/e8/58f10f8e7fb4.jpg Скачать фильм Легенда о тайном проходе через торрент бесплантно в хорошем качестве Описание: Каньоны юго-запада Америки. В окрестности возвращается обладающее магией зло. Спасая от него местных животных, легендарные ... 10 10 5
Торрент: Зарегистрирован [2019-01-11 13:02] · скачан: 82 раз
Статус: T временная
Размер: 3.44 GB
Как cкачать? Как скачать Легенда о тайном проходе через торрент | qTorrent

% Раздел Тема Автор DL S | L
T Фильмы (мультфильмы) cо спонсором показа (Новинки AVI/MKV) [ 1.37 GB ] Легенда о тайном проходе / The Legend of Secret Pass [2019 мультфильм WEB-DLRip] MVO ["Синема УС"] bober100 Скачать
11 | 0


>> Регистрируемся здесь <<






Отзывы и комментарии о схеме читаем и пишем здесь: ---> Отзывы и комментарии о схеме

Новые благодарочки в телеграм довольных пользователей:
скриншот   скриншот   скриншот   скриншот   скриншот

12-01-2019 02:28 Легенда о тайном проходе Скачать торрент  

Судя по названию. Этому мультику должно быть 18+



12-01-2019 06:44 Легенда о тайном проходе Скачать торрент  

Demon83666 писал(а):

Судя по названию. Этому мультику должно быть 18+

в заднем проходе нет ничего тайного?)



12-01-2019 12:57 Легенда о тайном проходе Скачать торрент  

Легенда о тайном проходе через торрент - повеселило



13-01-2019 14:28 Легенда о тайном проходе Скачать торрент  

tamburetko писал(а):

Demon83666 писал(а):

Судя по названию. Этому мультику должно быть 18+

в заднем проходе нет ничего тайного?)

Тайного нет! Но у всех по разному.



    Дорогой пользователь! Огромная просьба, поблагодарите релизера, оцените раздачу и оставьте свои комментарий, если Вы скачали Легенда о тайном проходе через торрент бесплатно! Внесите свою лепту в развитие PiratBit!
    Комментировать посты могут только пользователи прошедшие не сложную регистрацию
    Показать сообщения:    

    Легенда о тайном проходе через торрент
    Скачать бесплатно Легенда о тайном проходе
    Легенда о тайном проходе скачать торрент
    Легенда о тайном проходе смотреть онлайн
    Cкачать фильм Легенда о тайном проходе бесплатно
    Легенда о тайном проходе скачать торрент в хорошем качестве
    Легенда о тайном проходе смотреть онлайн бесплатно в хорошем качестве


    Вы не можете начинать темы
    Вы не можете отвечать на сообщения
    Вы не можете редактировать свои сообщения
    Вы не можете удалять свои сообщения
    Вы не можете голосовать в опросах
    Вы не можете прикреплять файлы к сообщениям
    Вы можете скачивать файлы