ВНИМАНИЕ!!! Роскомнадзор заблокировал pb.wtf в РФ навсегда, просьба установить наш плагин который откроет доступ из РФ, для Хром, Ябраузер, Опера -> Mozilla FireFox и перейти на pb.wtf. о плагине

Лицензия

30

MVO

Как приручить дракона 3

11 сезон

1

1 сезон

гринч

iTunes

Стекло

iTunes

Клаустрофобы

8 сезон

Игра престолов

iTunes

Ральф против интернета Хит недели

ИГРА 18+

pack

ВАЖНО

!!Акция!!

Alien_RageХит недели

RePack

Resident Evil 21
pack

RePack

Metro:Exodus

!!Акция!!

Alien_Rage

RePack

fifa19

RePack

Assassins Creed: Odyssey

RePack

NEED FOR SPEED™ PAYBACK

3 сезон

9 сезон

Бесстыжие 9 сезон

Все сериалы

все сериалы на PB.wtf

RePack

FAR CRY 5
Ребята, критически не успеваем дособрать 3200р. для оплаты серверов за Март (всвязи с блокировками трафик упал в 3 раза), 1-2р., выручайте.
  

[CockyBoys.com] Just Being Me: Alex Mecum & Carter Dane / [CockyBoys.com] Just Being Me: Alex Mecum & Carter Dane [2019 г., Anal Sex, Bareback, Big Dick, Blowjob, Boyfriends & Romance, Cumshots, Hairy, Kissing, Masturbation, Rimming, Uncut., HDRip, О pb.wtf

через торрент pb.wtf

Раздают: 1 [ 0 KB/s ]
Размер: 698 MB | Добавлен: 3 мес. 9 д. назад | Торрент скачан:90 раз
Скачать  

11-01-2019 13:33 Скачать торрент  

[CockyBoys.com] Just Being Me: Alex Mecum & Carter Dane / [CockyBoys.com] Just Being Me: Alex Mecum & Carter Dane
Год выпуска: 2019
Производство:: CockyBoys.com
Жанр: Anal Sex, Bareback, Big Dick, Blowjob, Boyfriends & Romance, Cumshots, Hairy, Kissing, Masturbation, Rimming, Uncut.
Продолжительность: 00:32:47
Перевод: Оригинальный

В ролях: Alex Mecum, Carter Dane

Описание: Back by popular demand, it''s the long-awaited rematch of Carter Dane & Alex Mecum in a fun & hot condom-free scene!! Now a real-life couple, Carter & Alex touch upon their meeting, dating afterward and their relationship now as they invite you into their bedroom. Playful and passionately sensual foreplay leads to Carter sucking Alex''s picturesque cock as they continue to exchange loving compliments. Yet they also want to do something new: deep throating! And so with Carter on his back Alex feeds him his cock.

Carter takes Alex''s cock into his throat and soon Alex leans forward in a 69. Soon though Alex vocalizes his desire for Carter''s perfect butt and Carter''s response is simple: "Come & get it". Alex rims and plays with his ass as Carter stands on the bed and holds the headboard Alex slides into him. Alex fucks Carter deep and they move together with the graceful ease of longtime togetherness while the pleasurable sensations seem fresh and new. A change in position gets Alex in deeper and Carter louder, on the verge of cumming.

After catching their breath Alex starts to plow Carter as he lies on his stomach and even in this horizontal position they move together with the same pleasurable intensity. Alex transitions to side-fucking Carter and as goes faster & deeper he brings Carter to the edge. Flipping Alex on his back Carter rides him until he cum over Alex''s hairy muscles. In no time Alex pulls out and shoots his load between Carter''s ass cheeks and slides in his cock again. At the end they share joyful chuckles, kisses and mouth words of affection for all to see.

Доп. информация: официальный релиз - 03.01.2019

Качество: HDRip 720p
Формат: MP4
Видео кодек: AVC
Аудио кодек: AAC
Видео: AVC, 1280x720 (16:9), 30.000 fps, 3 000 Kbps (0.109 bit/pixel)
Аудио#1: AAC LC, 44.1 KHz, 2 ch, 128 Kbps
Общее
Полное имя : D:\torrent\Новая загрузка(док)\[CockyBoys]JustBeingMe_AlexMecum_&_CarterDane-720p.mp4
Формат : MPEG-4
Профиль формата : Base Media
Идентификатор кодека : isom (isom/iso2/avc1/mp41)
Размер файла : 698 Мбайт
Продолжительность : 32 м. 46 с.
Общий поток : 2978 Кбит/сек
Программа кодирования : Lavf58.12.100

Видео
Идентификатор : 1
Формат : AVC
Формат/Информация : Advanced Video Codec
Профиль формата : High@L3.1
Настройки формата : CABAC / 4 Ref Frames
Параметр CABAC формата : Да
Параметр RefFrames формата : 4 кадра
Идентификатор кодека : avc1
Идентификатор кодека/Информация : Advanced Video Coding
Продолжительность : 32 м. 46 с.
Битрейт : 2842 Кбит/сек
Номинальный битрейт : 3000 Кбит/сек
Ширина : 1280 пикселей
Высота : 720 пикселей
Соотношение сторон : 16:9
Режим частоты кадров : Постоянный
Частота кадров : 30,000 кадров/сек
Цветовое пространство : YUV
Субдискретизация насыщенности : 4:2:0
Битовая глубина : 8 бит
Тип развёртки : Прогрессивная
Бит/(Пиксели*Кадры) : 0.103
Размер потока : 666 Мбайт (95%)
Библиотека кодирования : x264 core 155 r2901 7d0ff22
Настройки программы : cabac=1 / ref=3 / deblock=1:0:0 / analyse=0x3:0x113 / me=hex / subme=7 / psy=1 / psy_rd=1.00:0.00 / mixed_ref=1 / me_range=16 / chroma_me=1 / trellis=1 / 8x8dct=1 / cqm=0 / deadzone=21,11 / fast_pskip=1 / chroma_qp_offset=-2 / threads=22 / lookahead_threads=3 / sliced_threads=0 / nr=0 / decimate=1 / interlaced=0 / bluray_compat=0 / constrained_intra=0 / bframes=3 / b_pyramid=2 / b_adapt=1 / b_bias=0 / direct=1 / weightb=1 / open_gop=0 / weightp=2 / keyint=250 / keyint_min=25 / scenecut=40 / intra_refresh=0 / rc_lookahead=40 / rc=cbr / mbtree=1 / bitrate=3000 / ratetol=1.0 / qcomp=0.60 / qpmin=0 / qpmax=69 / qpstep=4 / vbv_maxrate=3000 / vbv_bufsize=5000 / nal_hrd=none / filler=0 / ip_ratio=1.40 / aq=1:1.00
Язык : English
Codec configuration box : avcC

Аудио
Идентификатор : 2
Формат : AAC LC
Формат/Информация : Advanced Audio Codec Low Complexity
Идентификатор кодека : mp4a-40-2
Продолжительность : 32 м. 46 с.
Duration_LastFrame : -22 мс.
Вид битрейта : Постоянный
Битрейт : 128 Кбит/сек
Каналы : 2 канала
Channel layout : L R
Частота : 44,1 КГц
Частота кадров : 43,066 кадра/сек (1024 SPF)
Метод сжатия : С потерями
Размер потока : 30,0 Мбайт (4%)
Язык : English
Default : Да
AlternateGroup/String : 1

pb.wtf



Скачать через торрент http://pic1.kartinco.top/images/12/rhcl5.jpg Скачать фильм [CockyBoys.com] Just Being Me: Alex Mecum & Carter Dane через торрент бесплантно в хорошем качестве Описание: Back by popular demand, it''s the long-awaited rematch of Carter Dane & Alex Mecum in a fun & hot condom-free scene!! Now a ... 7 10 3
Торрент: Зарегистрирован [2019-01-11 13:33] · скачан: 90 раз
Статус: √ проверено
Размер: 698 MB
Как cкачать? Как скачать через торрент | qTorrent


>> Регистрируемся здесь <<






Отзывы и комментарии о схеме читаем и пишем здесь: ---> Отзывы и комментарии о схеме

Новые благодарочки в телеграм довольных пользователей:
скриншот   скриншот   скриншот   скриншот   скриншот
    Дорогой пользователь! Огромная просьба, поблагодарите релизера, оцените раздачу и оставьте свои комментарий, если Вы скачали через торрент бесплатно! Внесите свою лепту в развитие PiratBit!
    Комментировать посты могут только пользователи прошедшие не сложную регистрацию
    Показать сообщения:    

    через торрент
    Скачать бесплатно
    скачать торрент
    смотреть онлайн
    Cкачать фильм бесплатно
    скачать торрент в хорошем качестве
    смотреть онлайн бесплатно в хорошем качестве


    Вы не можете начинать темы
    Вы не можете отвечать на сообщения
    Вы не можете редактировать свои сообщения
    Вы не можете удалять свои сообщения
    Вы не можете голосовать в опросах
    Вы не можете прикреплять файлы к сообщениям
    Вы можете скачивать файлы