Ребята, если до конца года каждый наш пользователь пожертвует хотя бы 10 рублей, нам хватит денег оплатить все наши расходы.

iTunes

Хэллоуин

iTunes

venom

iTunes

Вы умрете, или мы вернем вам деньги

iTunes

iTunes

Тайна дома с часами

iTunes

Ничего хорошего в отеле «Эль рояль»

1080p

Хит недели

Лицензия

Агент Джонни Инглиш 3.0

ИГРА 18+

pack

RePack

Battlefield V

RePack

Assassins Creed: Odyssey
pack

Проголосуй

Лучший релизер 2018

RePack

Darksiders 3

iTunes 4K

venom Хит недели

RePack

fifa19

!!Акция!!

Alien_RageХит недели

RePack

NEED FOR SPEED™ PAYBACK

SATRip

9 сезон

Бесстыжие 9 сезон

Все сериалы

все сериалы на PB.wtf

iTunes

Мэнди

RePack

FAR CRY 5
  

Половое воспитание / Сексуальное просвещение / Sex Education / Сезон 1 / Серии 1-8 из 8 (Кейт Херрон, Бен Тэйлор) [2019, Драма, комедия, WEBRip 720p] [MVO] (BTI Studio)

Половое воспитание через торрент

Раздают: 7 [ 758 KB/s ] Качают: 1 [ 154 KB/s ]
Размер: 9.08 GB | Добавлен: 6 д. назад | Торрент скачан:94 раза
Скачать  

11-01-2019 13:49 Половое воспитание Скачать торрент  


Половое воспитание / Сексуальное просвещение / Sex Education
Год выпуска: 2019
Страна: США
Жанр: Драма, комедия
Продолжительность: ~00:45:00
Озвучание: Профессиональное (многоголосое закадровое) (BTI Studio)
Режиссеры: Кейт Херрон, Бен Тэйлор

В ролях: Эйса Баттерфилд, Эмма Маккей, Джиллиан Андерсон, Нкути Гатуа, Шанель Кулар, Алистэр Петри, Коннор Суинделлс, Александр Вествуд, Кедар Уильямс-Стирлинг, Мими Кин, Таня Рейнольдс, Патриция Эллисон, Симон Эшли

Описание: Сериал расскажет о неловком шестнадцатилетнем парне по имени Отис (Эйса Баттерфилд). Его мама (Джиллиан Андерсон) работает секс-терапевтом. Поэтому юноша, несмотря на свою необщительность с противоположным полом, неплохо разбирается в физиологии и психологии. Однажды, объединившись со своей одноклассницей - остроумной «плохой девочкой» Мэйв, Отис решает открыть в школе подпольные курсы сексуального воспитания, чтобы помочь одноклассникам справиться с переживаниями и сложностями переходного возраста. А заодно – подзаработать немного денег. Правда, довольно быстро юноша понимает, что ему самому не помешала бы профессиональная помощь в этих вопросах.

ratingскриншот  

скриншот  
Сбор материала и оформление релиза: скриншот  

Качество: WEBRip 720p
Формат: MKV
Видео: MPEG-4 AVC, ~ 3100 Кбит/с, 1280x720
Аудио Rus: 48 kHz, AC3 Dolby Digital, 3/2 (L,C,R,l,r) + LFE ch, ~384.00 kbps
Аудио Eng: 48 kHz, AC3 Dolby Digital, 3/2 (L,C,R,l,r) + LFE ch, ~384.00 kbps
Субтиры: Русские, английские, немецкие, французские, итальянские, испанские, голландские, португальские, греческие
скриншот  скриншот  скриншот  
Общее
Уникальный идентификатор : 115135130146587025495954263745645828612 (0x569E382FD7C26B354BDAC68C803CDA04)
Полное имя : Sex.Education.s01e01. Эпизод 1.mkv
Формат : Matroska
Версия формата : Version 4
Размер файла : 1,42 Гбайт
Продолжительность : 52 м. 6 с.
Режим общего битрейта : Переменный
Общий поток : 3901 Кбит/сек
Дата кодирования : UTC 2019-01-11 11:53:04
Программа кодирования : mkvmerge v25.0.0 ('Prog Noir') 64-bit
Библиотека кодирования : libebml v1.3.6 + libmatroska v1.4.9

Видео
Идентификатор : 1
Формат : AVC
Формат/Информация : Advanced Video Codec
Профиль формата : Main@L3.1
Настройки формата : CABAC / 3 Ref Frames
Параметр CABAC формата : Да
Параметр RefFrames формата : 3 кадра
Идентификатор кодека : V_MPEG4/ISO/AVC
Продолжительность : 52 м. 6 с.
Вид битрейта : Переменный
Битрейт : 3160 Кбит/сек
Максимальный битрейт : 4740 Кбит/сек
Ширина : 1280 пикселей
Высота : 720 пикселей
Соотношение сторон : 16:9
Режим частоты кадров : Постоянный
Частота кадров : 25,000 кадров/сек
Цветовое пространство : YUV
Субдискретизация насыщенности : 4:2:0
Битовая глубина : 8 бит
Тип развёртки : Прогрессивная
Бит/(Пиксели*Кадры) : 0.137
Размер потока : 1,14 Гбайт (80%)
Библиотека кодирования : x264 core 148 r2715 7e75228
Настройки программы : cabac=1 / ref=3 / deblock=1:0:0 / analyse=0x1:0x111 / me=umh / subme=10 / psy=1 / psy_rd=1.00:0.00 / mixed_ref=1 / me_range=24 / chroma_me=1 / trellis=2 / 8x8dct=0 / cqm=0 / deadzone=21,11 / fast_pskip=1 / chroma_qp_offset=-2 / threads=8 / lookahead_threads=1 / sliced_threads=0 / nr=0 / decimate=1 / interlaced=0 / bluray_compat=0 / stitchable=1 / constrained_intra=0 / bframes=2 / b_pyramid=0 / b_adapt=2 / b_bias=0 / direct=3 / weightb=1 / open_gop=0 / weightp=2 / keyint=50 / keyint_min=26 / scenecut=0 / intra_refresh=0 / rc_lookahead=50 / rc=2pass / mbtree=1 / bitrate=3160 / ratetol=1.0 / qcomp=0.50 / qpmin=6 / qpmax=51 / qpstep=4 / cplxblur=20.0 / qblur=0.5 / vbv_maxrate=4740 / vbv_bufsize=6320 / nal_hrd=vbr / filler=0 / ip_ratio=1.40 / aq=1:1.00
Язык : English
Default : Да
Forced : Нет

Аудио #1
Идентификатор : 2
Формат : AC-3
Формат/Информация : Audio Coding 3
Коммерческое название : Dolby Digital
Идентификатор кодека : A_AC3
Продолжительность : 52 м. 6 с.
Вид битрейта : Постоянный
Битрейт : 384 Кбит/сек
Каналы : 6 каналов
Channel layout : L R C LFE Ls Rs
Частота : 48,0 КГц
Частота кадров : 31,250 кадров/сек (1536 SPF)
Битовая глубина : 16 бит
Метод сжатия : С потерями
Размер потока : 143 Мбайт (10%)
Язык : Russian
ServiceKind/String : Complete Main
Default : Да
Forced : Нет

Аудио #2
Идентификатор : 3
Формат : AC-3
Формат/Информация : Audio Coding 3
Коммерческое название : Dolby Digital
Идентификатор кодека : A_AC3
Продолжительность : 52 м. 6 с.
Вид битрейта : Постоянный
Битрейт : 384 Кбит/сек
Каналы : 6 каналов
Channel layout : L R C LFE Ls Rs
Частота : 48,0 КГц
Частота кадров : 31,250 кадров/сек (1536 SPF)
Битовая глубина : 16 бит
Метод сжатия : С потерями
Размер потока : 143 Мбайт (10%)
Язык : English
ServiceKind/String : Complete Main
Default : Нет
Forced : Нет

Текст #1
Идентификатор : 4
Формат : UTF-8
Идентификатор кодека : S_TEXT/UTF8
Идентификатор кодека/Информация : UTF-8 Plain Text
Продолжительность : 41 м. 23 с.
Битрейт : 1 бит/сек
ElementCount : 13
Размер потока : 555 байт (0%)
Заголовок : Forced
Язык : Russian
Default : Да
Forced : Да

Текст #2
Идентификатор : 5
Формат : UTF-8
Идентификатор кодека : S_TEXT/UTF8
Идентификатор кодека/Информация : UTF-8 Plain Text
Продолжительность : 49 м. 50 с.
Битрейт : 86 бит/сек
ElementCount : 740
Размер потока : 31,5 Кбайт (0%)
Язык : Russian
Default : Нет
Forced : Нет

Текст #3
Идентификатор : 6
Формат : UTF-8
Идентификатор кодека : S_TEXT/UTF8
Идентификатор кодека/Информация : UTF-8 Plain Text
Продолжительность : 51 м. 25 с.
Битрейт : 78 бит/сек
ElementCount : 914
Размер потока : 29,6 Кбайт (0%)
Заголовок : SDH
Язык : English
Default : Нет
Forced : Нет

Текст #4
Идентификатор : 7
Формат : UTF-8
Идентификатор кодека : S_TEXT/UTF8
Идентификатор кодека/Информация : UTF-8 Plain Text
Продолжительность : 50 м. 53 с.
Битрейт : 57 бит/сек
ElementCount : 690
Размер потока : 21,3 Кбайт (0%)
Язык : German
Default : Нет
Forced : Нет

Текст #5
Идентификатор : 8
Формат : UTF-8
Идентификатор кодека : S_TEXT/UTF8
Идентификатор кодека/Информация : UTF-8 Plain Text
Продолжительность : 49 м. 50 с.
Битрейт : 58 бит/сек
ElementCount : 740
Размер потока : 21,4 Кбайт (0%)
Язык : French
Default : Нет
Forced : Нет

Текст #6
Идентификатор : 9
Формат : UTF-8
Идентификатор кодека : S_TEXT/UTF8
Идентификатор кодека/Информация : UTF-8 Plain Text
Продолжительность : 50 м. 54 с.
Битрейт : 56 бит/сек
ElementCount : 703
Размер потока : 21,0 Кбайт (0%)
Язык : Italian
Default : Нет
Forced : Нет

Текст #7
Идентификатор : 10
Формат : UTF-8
Идентификатор кодека : S_TEXT/UTF8
Идентификатор кодека/Информация : UTF-8 Plain Text
Продолжительность : 50 м. 54 с.
Битрейт : 52 бит/сек
ElementCount : 744
Размер потока : 19,5 Кбайт (0%)
Язык : Spanish
Default : Нет
Forced : Нет

Текст #8
Идентификатор : 11
Формат : UTF-8
Идентификатор кодека : S_TEXT/UTF8
Идентификатор кодека/Информация : UTF-8 Plain Text
Продолжительность : 50 м. 54 с.
Битрейт : 54 бит/сек
ElementCount : 707
Размер потока : 20,4 Кбайт (0%)
Язык : Dutch
Default : Нет
Forced : Нет

Текст #9
Идентификатор : 12
Формат : UTF-8
Идентификатор кодека : S_TEXT/UTF8
Идентификатор кодека/Информация : UTF-8 Plain Text
Продолжительность : 50 м. 57 с.
Битрейт : 56 бит/сек
ElementCount : 708
Размер потока : 21,0 Кбайт (0%)
Язык : Portuguese
Default : Нет
Forced : Нет

Текст #10
Идентификатор : 13
Формат : UTF-8
Идентификатор кодека : S_TEXT/UTF8
Идентификатор кодека/Информация : UTF-8 Plain Text
Продолжительность : 50 м. 54 с.
Битрейт : 91 бит/сек
ElementCount : 725
Размер потока : 34,2 Кбайт (0%)
Язык : Greek
Default : Нет
Forced : Нет



Скачать Половое воспитание через торрент https://b.radikal.ru/b14/1901/7f/11d7e584a1d7.jpg Скачать фильм Половое воспитание через торрент бесплантно в хорошем качестве Описание: Сериал расскажет о неловком шестнадцатилетнем парне по имени Отис (Эйса Баттерфилд). Его мама (Джиллиан Андерсон) работает ... 9.4 10 5
Info! Золотая раздача, скачанное не засчитывается.
Торрент: Зарегистрирован [2019-01-11 13:49] · скачан: 94 раз
Статус: √ проверено
Размер: 9.08 GB
Как cкачать? Как скачать Половое воспитание через торрент | qTorrent


>> Регистрируемся здесь <<






Отзывы и комментарии о схеме читаем и пишем здесь: ---> Отзывы и комментарии о схеме

Новые благодарочки в телеграм довольных пользователей:
скриншот   скриншот   скриншот   скриншот   скриншот

11-01-2019 15:48 Половое воспитание Скачать торрент  

скачать что ли?
а то-вдруг я чего не знаю?



16-01-2019 13:10 Половое воспитание Скачать торрент  

Хороший сериал , бриты умеют снимать, можно ещё аvi рип



16-01-2019 13:19 Половое воспитание Скачать торрент  

tka4ov81 писал(а):

можно ещё аvi рип

с данным перевод в avi нету рипов в сети



    Дорогой пользователь! Огромная просьба, поблагодарите релизера, оцените раздачу и оставьте свои комментарий, если Вы скачали Половое воспитание через торрент бесплатно! Внесите свою лепту в развитие PiratBit!
    Комментировать посты могут только пользователи прошедшие не сложную регистрацию
    Показать сообщения:    

    Половое воспитание через торрент
    Скачать бесплатно Половое воспитание
    Половое воспитание скачать торрент
    Половое воспитание смотреть онлайн
    Cкачать фильм Половое воспитание бесплатно
    Половое воспитание скачать торрент в хорошем качестве
    Половое воспитание смотреть онлайн бесплатно в хорошем качестве


    Вы не можете начинать темы
    Вы не можете отвечать на сообщения
    Вы не можете редактировать свои сообщения
    Вы не можете удалять свои сообщения
    Вы не можете голосовать в опросах
    Вы не можете прикреплять файлы к сообщениям
    Вы можете скачивать файлы