MEGA SALE -50% FORZA HORIZON 4 ULTIMATE+ВСЕ DLC+ОНЛАЙН всего за 599р. 299 руб. (супер цена). Внимание количество ограничено!!!

iTunes

1+1

iTunes

мы

iTunes

1

iTunes

Чернобыль

1 сезон

Ральф против интернета

Лицензия

ПШазам

Лицензия

Игра престолов

Лицензия

30
pack

ВАЖНО

!!Акция!!

Alien_RageХит недели

RePack

Resident Evil 21

ИГРА 18+

pack

RePack

Metro:Exodus

!!Акция!!

Alien_Rage

RePack

fifa19

RePack

Assassins Creed: Odyssey

RePack

NEED FOR SPEED™ PAYBACK

3 сезон

9 сезон

Бесстыжие 9 сезон

Все сериалы

все сериалы на PB.wtf

RePack

FAR CRY 5
Ребята, катастрофически не хватает 7730р. для оплаты серверов за ИЮЛЬ (всвязи с блокировками трафик упал в 3 раза), 1-2р., выручайте.
  

Смеяться последним / The Last Laugh (Грег Притикин) [2019 г., комедия, WEB-DLRip] MVO (HDRezka Studio) pb.wtf

Смеяться последним через торрент pb.wtf

Раздают: 1 [ 0 KB/s ]
Размер: 1.43 GB | Добавлен: 3 мес. 24 д. назад | Торрент скачан:126 раз
Скачать  

11-01-2019 21:39 Смеяться последним Скачать торрент  

Смеяться последним / The Last Laugh
Год выпуска: 2019

Страна: США

Жанр: Комедия

Продолжительность: 01:38:38

Перевод: Профессиональный (многоголосый) - [HDRezka Studio]

Режиссер: Грег Притикин

rating

Субтитры: Русские, английские (отдельным файлом)

В ролях: Чеви Чейз, Кейт Микуччи, Энди МакДауэлл, Ричард Дрейфусс, Эми Брассетт, Исла Сервелли, Ричи Монтгомери, Кит Уиллси, Кэрол Саттон, Ребекка Чулью

Описание: Вышедший на пенсию менеджер Эл Харт случайно натыкается на своего самого первого клиента - комика Бадди Грина, который оставил шоу-бизнес 50 лет назад. Эл видит в Бадди возможность вернуться в игру. Он уговаривает Бадди сбежать из дома престарелых и отправиться в турне.
Качество: WEB-DLRip
Формат: AVI
Видео кодек: XviD
Аудио кодек: AC3
Видео: XviD,1869 Кбит/с, 720x352
Аудио: Русский, AC3, 2 ch, 192 Кбит/с
Видео
Идентификатор : 0
Формат : MPEG-4 Visual
Профиль формата : Advanced Simple@L5
Настройки формата : BVOP2 / Custom Matrix
Параметр BVOP формата : 2
Параметр QPel формата : Нет
Параметр GMC формата : Без точки перехода
Параметр матрицы формата : Выборочная
Идентификатор кодека : XVID
Идентификатор кодека/Подсказка : XviD
Продолжительность : 1 ч. 38 м.
Битрейт : 1869 Кбит/сек
Ширина : 720 пикселей
Высота : 384 пикселя
Соотношение сторон : 1,85:1
Частота кадров : 23,976 (24000/1001) кадра/сек
Цветовое пространство : YUV
Субдискретизация насыщенности : 4:2:0
Битовая глубина : 8 бит
Тип развёртки : Прогрессивная
Метод сжатия : С потерями
Бит/(Пиксели*Кадры) : 0.282
Размер потока : 1,29 Гбайт (90%)
Библиотека кодирования : XviD 73

Аудио
Идентификатор : 1
Формат : AC-3
Формат/Информация : Audio Coding 3
Коммерческое название : Dolby Digital
Идентификатор кодека : 2000
Продолжительность : 1 ч. 38 м.
Вид битрейта : Постоянный
Битрейт : 192 Кбит/сек
Каналы : 2 канала
Channel layout : L R
Частота : 48,0 КГц
Частота кадров : 31,250 кадров/сек (1536 SPF)
Битовая глубина : 16 бит
Метод сжатия : С потерями
Размер потока : 135 Мбайт (9%)
Выравнивание : Разделение по промежуткам
Продолжительность промежутка : 42 мс. (1,00 видеокадр)
Время предзагрузки промежутка : 500 мс.
ServiceKind/String : Complete Main

скриншот   скриншот   скриншот   скриншот   скриншот  

Без рекламыpb.wtf



Скачать Смеяться последним через торрент http://pic1.kartinco.top/images/12/mv3lx.jpg Скачать фильм Смеяться последним через торрент бесплантно в хорошем качестве Описание: Вышедший на пенсию менеджер Эл Харт случайно натыкается на своего самого первого клиента - комика Бадди Грина, который оставил ... 9.9 10 8
× Info от релизера! Заменил на HDRezka Studio.Без рекламы
Торрент: Зарегистрирован [2019-04-29 19:50] · скачан: 126 раз
Статус: √ проверено
Размер: 1.43 GB
Как cкачать? Как скачать Смеяться последним через торрент | qTorrent



Последний раз редактировалось: Леонид Ильич (2019-04-29 19:51), всего редактировалось 2 раз(а)


>> Регистрируемся здесь <<






Отзывы и комментарии о схеме читаем и пишем здесь: ---> Отзывы и комментарии о схеме

Новые благодарочки в телеграм довольных пользователей:
скриншот   скриншот   скриншот   скриншот   скриншот

12-01-2019 12:16 Смеяться последним Скачать торрент  

Команда Чеви Чейз, Кейт Микуччи, Энди МакДауэлл, Ричард Дрейфусс-должна быть интересной,посмотрим...Спасибо за раздачу!pb.wtf



14-01-2019 13:40 Смеяться последним Скачать торрент  

Нудноpb.wtf



29-04-2019 19:54 Смеяться последним Скачать торрент  

    Дорогой пользователь! Огромная просьба, поблагодарите релизера, оцените раздачу и оставьте свои комментарий, если Вы скачали Смеяться последним через торрент бесплатно! Внесите свою лепту в развитие PiratBit!
    Комментировать посты могут только пользователи прошедшие не сложную регистрацию
    Показать сообщения:    

    Смеяться последним через торрент
    Скачать бесплатно Смеяться последним
    Смеяться последним скачать торрент
    Смеяться последним смотреть онлайн
    Cкачать фильм Смеяться последним бесплатно
    Смеяться последним скачать торрент в хорошем качестве
    Смеяться последним смотреть онлайн бесплатно в хорошем качестве


    Вы не можете начинать темы
    Вы не можете отвечать на сообщения
    Вы не можете редактировать свои сообщения
    Вы не можете удалять свои сообщения
    Вы не можете голосовать в опросах
    Вы не можете прикреплять файлы к сообщениям
    Вы можете скачивать файлы