новый адрес
Ссылка на приватное зеркало всего за 1$. Внимание количество ограничено!!!

iTunes

1+1

iTunes

мы

WEB-DL

1

iTunes

Чернобыль

iTunes

Ральф против интернета

Лицензия

ПШазам

Лицензия

Оно 2

Лицензия

30
pack

Вам бонус

ВАЖНО

!!Акция!!

Alien_RageХит недели

RePack

Resident Evil 21

ИГРА 18+

pack

RePack

jed

!!Акция!!

Alien_Rage

RePack

fifa19

RePack

Assassins Creed: Odyssey

RePack

NEED FOR SPEED™ PAYBACK

3 сезон

9 сезон

Бесстыжие 9 сезон

Все сериалы

все сериалы на PB.wtf

RePack

FAR CRY 5
Ребята, катастрофически не хватает 1900р. для оплаты серверов за Октябрь (всвязи с блокировками трафик упал в 3 раза), 1-2р., выручайте.
  

Наш общий друг (Иван Пырьев) [1961, СССР, драма, комедия, SATRip от AVP Studio] pb.wtf

Наш общий друг через торрент pb.wtf

Размер: 1.46 GB | Добавлен: 10 мес. назад | Торрент скачан:12 раз
Скачать  

12-01-2019 07:44 Наш общий друг Скачать торрент  

Наш общий друг
Страна: СССР
Производство: Мосфильм

Жанр: драма, комедия
Год выпуска: 1962
Продолжительность: 01:54:22

Перевод: Не требуется
Cубтитры: нет
Оригинальная аудиодорожка: русский

Режиссер: Иван Пырьев

В ролях:
Виктор Авдюшко, Наталья Фатеева, Аркадий Аркадьев, Екатерина Литвиненко, Борис Юрченко, Владимир Дорофеев, Нина Шорина, Григорий Тесля, Сергей Филиппов, Юрий Белов, Раиса Куркина...
Об актёрах подробней

Описание:
По повести Виктора Логинова «На то она и любовь...».
В каждом колхозе обязательно найдется «летописец». В кубанском колхозе таким летописцем был Лукьянюк. Именно его заметка о том, что телятница Лиза (Наталья Фатеева) моет молоком лицо, попала на страницы районной газеты. Честная и трудолюбивая девушка нашла защиту у парторга Прохора Корнийца (Виктор Авдюшко), а потом за чуткость и смелость полюбила его. Но парторг женат, имеет сына. И чтобы не причинять боль любимому человеку, Лиза покидает колхоз.

Исходник: DVB
Качество видео: SATRip
Формат видео: AVI

Видео: 704x528 (4:3), 25,000 кадров/сек, XviD ~ 1624 kbps avg, 0.175 bit/pixel
Аудио: 48 kHz, Dolby Digital AC3 2.0, 192 kbps

Раздача от:
Общее
Полное имя : Nash.obshchiy.drug.1962.SATRip_[New-team]_by_AVP_Studio.avi
Формат : AVI
Формат/Информация : Audio Video Interleave
Размер файла : 1,46 Гбайт
Продолжительность : 1 ч. 54 м.
Общий поток : 1825 Кбит/сек
Программа кодирования : VirtualDubMod 1.5.10.3 | www.virtualdub-fr.org || (build 2550/release)
Библиотека кодирования : VirtualDubMod build 2550/release

Видео
Идентификатор : 0
Формат : MPEG-4 Visual
Профиль формата : Advanced Simple@L5
Настройки формата : BVOP1 / Custom Matrix
Параметр BVOP формата : 1
Параметр QPel формата : Нет
Параметр GMC формата : Без точки перехода
Параметр матрицы формата : Выборочная
Идентификатор кодека : XVID
Идентификатор кодека/Подсказка : XviD
Продолжительность : 1 ч. 54 м.
Битрейт : 1624 Кбит/сек
Ширина : 704 пикселя
Высота : 528 пикселей
Соотношение сторон : 4:3
Частота кадров : 25,000 кадров/сек
Цветовое пространство : YUV
Субдискретизация насыщенности : 4:2:0
Битовая глубина : 8 бит
Тип развёртки : Прогрессивная
Метод сжатия : С потерями
Бит/(Пиксели*Кадры) : 0.175
Размер потока : 1,30 Гбайт (89%)
Библиотека кодирования : XviD 73

Аудио
Идентификатор : 1
Формат : AC-3
Формат/Информация : Audio Coding 3
Коммерческое название : Dolby Digital
Идентификатор кодека : 2000
Продолжительность : 1 ч. 54 м.
Вид битрейта : Постоянный
Битрейт : 192 Кбит/сек
Каналы : 2 канала
Channel layout : L R
Частота : 48,0 КГц
Частота кадров : 31,250 кадров/сек (1536 SPF)
Битовая глубина : 16 бит
Метод сжатия : С потерями
Размер потока : 157 Мбайт (11%)
Выравнивание : Разделение по промежуткам
Продолжительность промежутка : 40 мс. (1,00 видеокадр)
Время предзагрузки промежутка : 500 мс
pb.wtf



Скачать Наш общий друг через торрент http://picplus.ru/img/1901/12/3ec3f5dd.png Скачать фильм Наш общий друг через торрент бесплантно в хорошем качестве Описание:По повести Виктора Логинова «На то она и любовь...».В каждом колхозе обязательно найдется «летописец». В кубанском колхозе таким ... 10 10 1
Info! Золотая раздача, скачанное не засчитывается.
Торрент: Зарегистрирован [2019-01-12 07:44] · скачан: 12 раз
Статус: √ проверено
Размер: 1.46 GB
Как cкачать? Как скачать Наш общий друг через торрент | qTorrent

% Раздел Тема Автор DL S | L
Кино СССР [ 1.46 GB ] Наш общий друг [1961 СССР SATRip-AVC от AVP Studio] AVP Studio Скачать
1 | 0
Кино СССР [ 1.09 GB ] Наш общий друг [1961 СССР SATRip от AVP Studio] AVP Studio Скачать
1 | 0
Классика [ 1.77 GB ] Наш общий друг [2011 Классическая проза аудиокнига MP3 96kbps Вячеслав Герасимов] Magnat Скачать
1 | 0
Секс с подростками [ 142 MB ] Наша общая подруга [2011 Oral Sex Classic Sex Orgy Teen DVDRip] peek-in Скачать
1 | 0

28-11-2019 20:33  

Отключить всю рекламу на сайте

    Дорогой пользователь! Огромная просьба, поблагодарите релизера, оцените раздачу и оставьте свои комментарий, если Вы скачали Наш общий друг через торрент бесплатно! Внесите свою лепту в развитие PiratBit!
    Комментировать посты могут только пользователи прошедшие не сложную регистрацию
    Показать сообщения:    

    Наш общий друг через торрент
    Скачать бесплатно Наш общий друг
    Наш общий друг скачать торрент
    Наш общий друг смотреть онлайн
    Cкачать фильм Наш общий друг бесплатно
    Наш общий друг скачать торрент в хорошем качестве
    Наш общий друг смотреть онлайн бесплатно в хорошем качестве


    Вы не можете начинать темы
    Вы не можете отвечать на сообщения
    Вы не можете редактировать свои сообщения
    Вы не можете удалять свои сообщения
    Вы не можете голосовать в опросах
    Вы не можете прикреплять файлы к сообщениям
    Вы можете скачивать файлы