Ссылка на приватное зеркало нашего сайта всего за 1$. Внимание количество ограничено!!!

2 сезон

iTunes

1 сезон

1

2 сезон

2 сезон

iTunes

1 сезон

RePack

30

Новинка

ВАЖНО

ИГРА 18+

pack

RePack

MK11
pack

Забери бонус

RePack

jed

!!Акция!!

Alien_Rage

RePack

fifa19

RePack

Assassins Creed: Odyssey

RePack

NEED FOR SPEED™ PAYBACK

4 сезон

9 сезон

Бесстыжие 9 сезон

Все сериалы

все сериалы на PB.wtf

RePack

FAR CRY 5
  

Половое воспитание / Всё о сексе / Sex Education / Сезон: 1 / Серии: 1-8 из 8 (Кейт Херрон, Бен Тэйлор) [2019, драма, комедия, WEBRip 1080p] [MVO] (BTI Studios) pb.wtf

Половое воспитание через торрент pb.wtf

Размер: 30.79 GB | Добавлен: 1 год 10 мес. назад | Торрент скачан:107 раз
Скачать  

12-01-2019 12:15 Половое воспитание Скачать торрент  

Половое воспитание / Всё о сексе / Sex Education
Год выпуска: 2019
Страна: США, Великобритания
Жанр: драма, комедия
Продолжительность: ~00:52:00
Перевод: Профессиональный (многоголосый закадровый) | BTI Studios
Роли озвучивали: Николай Быстров, Ольга Голованова, Екатерина Семёнова, Константин Карасик

Режиссёр: Кейт Херрон, Бен Тэйлор

В ролях: Эйса Баттерфилд, Эмма Маккей, Джиллиан Андерсон, Нкути Гатуа, Шанель Кулар, Алистэр Петри, Коннор Суинделлс, Александр Вествуд, Кедар Уильямс-Стирлинг, Мими Кин, Таня Рейнольдс, Патриция Эллисон, Симон Эшли

Описание: Сериал расскажет о неловком шестнадцатилетнем парне по имени Отис (Эйса Баттерфилд). Его мама (Джиллиан Андерсон) работает секс-терапевтом. Поэтому юноша, несмотря на свою необщительность с противоположным полом, неплохо разбирается в физиологии и психологии. Однажды, объединившись со своей одноклассницей - остроумной «плохой девочкой» Мэйв, Отис решает открыть в школе подпольные курсы сексуального воспитания, чтобы помочь одноклассникам справиться с переживаниями и сложностями переходного возраста. А заодно – подзаработать немного денег. Правда, довольно быстро юноша понимает, что ему самому не помешала бы профессиональная помощь в этих вопросах.
ratingСэмплскриншот  

скриншот  

Качество: WEBRip 1080p | DEFLATE
Контейнер: MKV
Видео: AVC, 1920x960 (16:9), 25 fps, ~10600 kbps
Аудио №1: E-AC3 5.1, 48 kHz, 640 kbps
Аудио №2: E-AC3 5.1, 48 kHz, 640 kbps
Субтитры: Русские (полные, форсированные), Английские (полные, форсированные, SDH)
Реклама: отсутствует

Релиз: Wilmots@EniaHD
General
Unique ID : 35213447747091769845299696599035378915 (0x1A7DDD044067670C6002BF9244997CE3)
Complete name : G:\Sex.Education.S01.1080p.WEBRip.X264-EniaHD\Sex.Education.S01E02.1080p.WEBRip.X264-EniaHD.mkv
Format : Matroska
Format version : Version 4 / Version 2
File size : 4.10 GiB
Duration : 49 min 26 s
Overall bit rate : 11.9 Mb/s
Movie name : Sex.Education.S01E02.1080p.WEBRip.X264-EniaHD
Encoded date : UTC 2019-01-12 08:07:20
Writing application : mkvmerge v30.1.0 ('Forever And More') 64-bit
Writing library : libebml v1.3.6 + libmatroska v1.4.9

Video
ID : 1
Format : AVC
Format/Info : Advanced Video Codec
Format profile : High@L4.1
Format settings : CABAC / 4 Ref Frames
Format settings, CABAC : Yes
Format settings, ReFrames : 4 frames
Codec ID : V_MPEG4/ISO/AVC
Duration : 49 min 26 s
Bit rate : 10.6 Mb/s
Width : 1 920 pixels
Height : 960 pixels
Display aspect ratio : 2.000
Frame rate mode : Constant
Frame rate : 25.000 FPS
Color space : YUV
Chroma subsampling : 4:2:0
Bit depth : 8 bits
Scan type : Progressive
Bits/(Pixel*Frame) : 0.230
Stream size : 3.66 GiB (89%)
Writing library : x264 core 157 r2935+3 (master: 545de2f / tmod: 0f48dd4) [X86_64]
Encoding settings : cabac=1 / ref=4 / deblock=1:-3:-3 / analyse=0x3:0x133 / me=umh / subme=11 / psy=1 / psy_rd=1.05:0.15 / mixed_ref=1 / me_range=48 / chroma_me=1 / trellis=2 / 8x8dct=1 / cqm=0 / deadzone=6,6 / fast_pskip=0 / chroma_qp_offset=-3 / threads=30 / lookahead_threads=7 / sliced_threads=0 / nr=0 / decimate=0 / interlaced=0 / bluray_compat=0 / constrained_intra=0 / bframes=10 / b_pyramid=2 / b_adapt=2 / b_bias=0 / direct=3 / weightb=1 / open_gop=0 / weightp=2 / keyint=250 / keyint_min=25 / scenecut=40 / intra_refresh=0 / rc_lookahead=60 / rc=crf / mbtree=0 / crf=17.0 / qcomp=0.70 / qpmin=0 / qpmax=69 / qpstep=4 / vbv_maxrate=62500 / vbv_bufsize=78125 / crf_max=0.0 / nal_hrd=none / filler=0 / ip_ratio=1.25 / pb_ratio=1.20 / aq=3:0.70
Language : English
Default : Yes
Forced : No

Audio #1
ID : 2
Format : E-AC-3
Format/Info : Enhanced Audio Coding 3
Codec ID : A_EAC3
Duration : 49 min 26 s
Bit rate mode : Constant
Bit rate : 640 kb/s
Channel(s) : 6 channels
Channel positions : Front: L C R, Side: L R, LFE
Sampling rate : 48.0 kHz
Frame rate : 187.500 FPS (256 SPF)
Compression mode : Lossy
Stream size : 226 MiB (5%)
Language : Russian
Service kind : Complete Main
Default : Yes
Forced : No

Audio #2
ID : 3
Format : E-AC-3
Format/Info : Enhanced Audio Coding 3
Codec ID : A_EAC3
Duration : 49 min 26 s
Bit rate mode : Constant
Bit rate : 640 kb/s
Channel(s) : 6 channels
Channel positions : Front: L C R, Side: L R, LFE
Sampling rate : 48.0 kHz
Frame rate : 187.500 FPS (256 SPF)
Compression mode : Lossy
Stream size : 226 MiB (5%)
Language : English
Service kind : Complete Main
Default : No
Forced : No

Text #1
ID : 4
Format : UTF-8
Codec ID : S_TEXT/UTF8
Codec ID/Info : UTF-8 Plain Text
Duration : 47 min 54 s
Bit rate : 69 b/s
Count of elements : 772
Stream size : 24.3 KiB (0%)
Title : English
Language : English
Default : No
Forced : No

Text #2
ID : 5
Format : UTF-8
Codec ID : S_TEXT/UTF8
Codec ID/Info : UTF-8 Plain Text
Duration : 49 min 5 s
Bit rate : 86 b/s
Count of elements : 957
Stream size : 31.2 KiB (0%)
Title : English (SDH)
Language : English
Default : No
Forced : No

Text #3
ID : 6
Format : UTF-8
Codec ID : S_TEXT/UTF8
Codec ID/Info : UTF-8 Plain Text
Duration : 39 min 19 s
Bit rate : 1 b/s
Count of elements : 9
Stream size : 311 Bytes (0%)
Title : Russian (Forced)
Language : Russian
Default : Yes
Forced : Yes

Text #4
ID : 7
Format : UTF-8
Codec ID : S_TEXT/UTF8
Codec ID/Info : UTF-8 Plain Text
Duration : 48 min 53 s
Bit rate : 88 b/s
Count of elements : 764
Stream size : 31.6 KiB (0%)
Title : Russian
Language : Russian
Default : No
Forced : No
скриншот  скриншот  скриншот  
pb.wtf



Скачать Половое воспитание через торрент https://occ-0-2851-1489.1.nflxso.net/art/49397/7b44e1c1a5628a7840965b091963b79d3c249397.jpg Скачать фильм Половое воспитание через торрент бесплантно в хорошем качестве Описание: Сериал расскажет о неловком шестнадцатилетнем парне по имени Отис (Эйса Баттерфилд). Его мама (Джиллиан Андерсон) работает ... 10 10 3
Торрент: Зарегистрирован [2019-01-12 12:15] · скачан: 107 раз
Статус: √ проверено
Размер: 30.79 GB
Как cкачать? Как скачать Половое воспитание через торрент | qTorrent

% Раздел Тема Автор DL S | L
Зарубежные сериалы [ 18.73 GB ] Половое воспитание / Сексуальное просвещение / Всё о сексе / Sex Education / Сезон: 2 / Серии: 1-8 из 8 [2020 WEBRip 1080p] MVO [BTI Studio & Пифагор / Netflix] bober100 Скачать
2 | 0
Зарубежные сериалы [ 40.54 GB ] Половое воспитание / Всё о сексе / Sex Education / Сезон: 2 / Серии: 1-8 из 8 [2020 WEBRip 1080p] [DVO] killermax2013 Скачать
2 | 0
Зарубежные сериалы [ 11.2 GB ] Половое воспитание / Сексуальное просвещение / Всё о сексе / Sex Education / Сезон: 2 / Серии: 1-8 из 8 [2020 WEBRip 720p] MVO [TVShows] bober100 Скачать
1 | 0
Зарубежные сериалы [ 5.85 GB ] Половое воспитание / Сексуальное просвещение / Всё о сексе / Sex Education / Сезон: 2 / Серии: 1-8 из 8 [2020 WEB-DLRip] MVO [LostFilm] bober100 Скачать
1 | 0
Зарубежные сериалы [ 17.23 GB ] Половое воспитание / Сексуальное просвещение / Всё о сексе / Sex Education / Сезон: 2 / Серии: 1-8 из 8 [2020 WEB-DL 1080p] MVO [Jaskier] bober100 Скачать
1 | 0
Зарубежные сериалы [ 10.26 GB ] Половое воспитание / Сексуальное просвещение / Всё о сексе / Sex Education / Сезон: 2 / Серии: 1-8 из 8 [2020 WEB-DL 720p] MVO [Jaskier] bober100 Скачать
1 | 0
Зарубежные сериалы [ 4.89 GB ] Половое воспитание / Сексуальное просвещение / Всё о сексе / Sex Education / Сезон: 2 / Серии: 1-8 из 8 [2020 WEB-DLRip] MVO [Jaskier] bober100 Скачать
2 | 0

28-11-2019 20:33  

Отключить всю рекламу на сайте

    Дорогой пользователь! Огромная просьба, поблагодарите релизера, оцените раздачу и оставьте свои комментарий, если Вы скачали Половое воспитание через торрент бесплатно! Внесите свою лепту в развитие PiratBit!
    Комментировать посты могут только пользователи прошедшие не сложную регистрацию
    Показать сообщения:    

    Половое воспитание через торрент
    Скачать бесплатно Половое воспитание
    Половое воспитание скачать торрент
    Половое воспитание смотреть онлайн
    Cкачать фильм Половое воспитание бесплатно
    Половое воспитание скачать торрент в хорошем качестве
    Половое воспитание смотреть онлайн бесплатно в хорошем качестве


    Вы не можете начинать темы
    Вы не можете отвечать на сообщения
    Вы не можете редактировать свои сообщения
    Вы не можете удалять свои сообщения
    Вы не можете голосовать в опросах
    Вы не можете прикреплять файлы к сообщениям
    Вы можете скачивать файлы