Ссылка на приватное зеркало нашего сайта всего за 1$. Внимание количество ограничено!!!

2 сезон

iTunes

1 сезон

1

2 сезон

2 сезон

iTunes

1 сезон

RePack

30

Ultimate

ВАЖНО

ИГРА 18+

pack

RePack

MK11
pack

Забери бонус

RePack

jed

!!Акция!!

Alien_Rage

RePack

fifa19

RePack

Assassins Creed: Odyssey

RePack

NEED FOR SPEED™ PAYBACK

4 сезон

9 сезон

Бесстыжие 9 сезон

Все сериалы

все сериалы на PB.wtf

RePack

FAR CRY 5
  

Лютер / Luther / Сезон: 5 / Серии: 1-4 из 4 (Сэм Миллер, Джэми Пэйн, Брайан Кирк, Стефан Шварц, Фэррен Блэкберн) [2019, Триллер, драма, криминал, детектив, WEB-DL 1080p] [MVO] (TVShows) pb.wtf

Лютер через торрент pb.wtf

Размер: 7.05 GB | Добавлен: 1 год 10 мес. назад | Торрент скачан:46 раз
Скачать  

12-01-2019 18:12 Лютер Скачать торрент  

Лютер | Luther
Год выпуска: 2019
Страна: Великобритания
Жанр: Триллер, драма, криминал, детектив
Продолжительность: ~ 01:00:00
Перевод: Профессиональный (многоголосый закадровый) | TVShows
Режиссёр: Сэм Миллер, Джэми Пэйн, Брайан Кирк

В ролях: Идрис Эльба, Дермот Краули, Майкл Смайли, Уоррен Браун, Рут Уилсон, Пол МакГанн, Никки Амука-Бёрд, Стивен Макинтош, Саския Ривз, Индира Варма и др.
Описание: История о выдающемся детективе Джоне Лютере, показывающая, что грязный полицейский и грязные методы — разные вещи. Успешность Лютера заключается в высокой раскрываемости преступлений, благодаря его нестандартным методам, которые он использует для поимки опаснейших преступников Лондона.

rating скриншот  
Качество: WEB-DL 1080p
Формат: MKV
Видео: AVC, 1920x1080 (16:9), 23.976 fps, ~ 3500 kbps
Аудио №1: AC3, 6 ch, 48 kHz, 384 kbps | TVShows
Аудио №2: E-AC3, 48,0 kHz, 6 ch, 640 kbps | Original
Субтитры: английские
General
Unique ID : 213130375916216485787308805580568074231 (0xA0576AD467E1027A171CD32A2BF717F7)
Complete name : F:\Luther.S05.1080p.TVShows\Luther.S05E01.1080p.TVShows.mkv
Format : Matroska
Format version : Version 4 / Version 2
File size : 1.87 GiB
Duration : 57 min 42 s
Overall bit rate : 4 640 kb/s
Encoded date : UTC 2019-01-12 10:06:07
Writing application : mkvmerge v28.2.0 ('The Awakening') 32-bit
Writing library : libebml v1.3.6 + libmatroska v1.4.9

Video
ID : 1
Format : AVC
Format/Info : Advanced Video Codec
Format profile : High@L4
Format settings : CABAC / 4 Ref Frames
Format settings, CABAC : Yes
Format settings, RefFrames : 4 frames
Codec ID : V_MPEG4/ISO/AVC
Duration : 57 min 42 s
Bit rate : 3 524 kb/s
Width : 1 920 pixels
Height : 1 080 pixels
Display aspect ratio : 16:9
Frame rate mode : Constant
Frame rate : 25.000 FPS
Color space : YUV
Chroma subsampling : 4:2:0
Bit depth : 8 bits
Scan type : Progressive
Bits/(Pixel*Frame) : 0.068
Stream size : 1.42 GiB (76%)
Default : Yes
Forced : No
Color range : Limited
Color primaries : BT.709
Transfer characteristics : BT.709
Matrix coefficients : BT.709

Audio #1
ID : 2
Format : AC-3
Format/Info : Audio Coding 3
Format settings, Endianness : Big
Codec ID : A_AC3
Duration : 57 min 42 s
Bit rate mode : Constant
Bit rate : 384 kb/s
Channel(s) : 6 channels
Channel positions : Front: L C R, Side: L R, LFE
Sampling rate : 48.0 kHz
Frame rate : 31.250 FPS (1536 SPF)
Bit depth : 16 bits
Compression mode : Lossy
Stream size : 158 MiB (8%)
Title : TVShows
Language : Russian
Service kind : Complete Main
Default : Yes
Forced : No

Audio #2
ID : 3
Format : E-AC-3
Format/Info : Enhanced Audio Coding 3
Format settings, Endianness : Big
Codec ID : A_EAC3
Duration : 57 min 42 s
Bit rate mode : Constant
Bit rate : 640 kb/s
Channel(s) : 6 channels
Channel positions : Front: L C R, Side: L R, LFE
Sampling rate : 48.0 kHz
Frame rate : 187.500 FPS (256 SPF)
Compression mode : Lossy
Stream size : 264 MiB (14%)
Title : Original
Language : English
Service kind : Complete Main
Default : No
Forced : No

Text
ID : 4
Format : UTF-8
Codec ID : S_TEXT/UTF8
Codec ID/Info : UTF-8 Plain Text
Title : English
Language : English
Default : No
Forced : No
скриншот  скриншот  скриншот  
pb.wtf



Скачать Лютер через торрент http://i103.fastpic.ru/big/2018/0110/2a/bbf66ca6ff61697cb89959b21cbf322a.jpg Скачать фильм Лютер через торрент бесплантно в хорошем качестве Описание: История о выдающемся детективе Джоне Лютере, показывающая, что грязный полицейский и грязные методы — разные вещи. Успешность ... 10 10 2
Торрент: Зарегистрирован [2019-01-12 18:12] · скачан: 46 раз
Статус: √ проверено
Размер: 7.05 GB
Как cкачать? Как скачать Лютер через торрент | qTorrent

% Раздел Тема Автор DL S | L
Зарубежные сериалы [ 3.58 GB ] Лютер / Luther / Сезон: 5 / Серии: 1-4 из 4 [2019 WEB-DL 720p] [MVO] killermax2013 Скачать
1 | 0
Зарубежные сериалы [ 7.05 GB ] Лютер / Luther / Сезон: 5 / Серии: 1-4 из 4 [2019 WEB-DL 1080p] [MVO] + 2x[Sub] killermax2013 Скачать
1 | 0
Зарубежные сериалы [ 2.86 GB ] Лютер / Luther / Сезон: 5 / Серии: 1-4 из 4 [2019 WEB-DLRip] [MVO] + 2x[Sub] killermax2013 Скачать
1 | 0
Зарубежные сериалы [ 2.16 GB ] Лютер / Luther / Сезон: 5 / Серии 1-4 из 4 [2019 WEBRip 720p] [MVO] killermax2013 Скачать
1 | 0
Зарубежные сериалы [ 1.05 GB ] Лютер / Luther / Сезон: 5 / Серии 1-4 из 4 [2019 WEBRip] [MVO] killermax2013 Скачать
1 | 0
Зарубежные сериалы [ 4.69 GB ] Лютер / Luther / Сезон: 5 / Серии 1-4 из 4 [2019 WEBRip 1080p] [MVO] killermax2013 Скачать
1 | 0
Зарубежные сериалы [ 6.44 GB ] Лютер / Luther / Сезон: 5 / Серии: 1-4 из 4 [2019 WEB-DL 1080p] [Sub RUS] killermax2013 Скачать
1 | 0

28-11-2019 20:33  

Отключить всю рекламу на сайте

    Дорогой пользователь! Огромная просьба, поблагодарите релизера, оцените раздачу и оставьте свои комментарий, если Вы скачали Лютер через торрент бесплатно! Внесите свою лепту в развитие PiratBit!
    Комментировать посты могут только пользователи прошедшие не сложную регистрацию
    Показать сообщения:    

    Лютер через торрент
    Скачать бесплатно Лютер
    Лютер скачать торрент
    Лютер смотреть онлайн
    Cкачать фильм Лютер бесплатно
    Лютер скачать торрент в хорошем качестве
    Лютер смотреть онлайн бесплатно в хорошем качестве


    Вы не можете начинать темы
    Вы не можете отвечать на сообщения
    Вы не можете редактировать свои сообщения
    Вы не можете удалять свои сообщения
    Вы не можете голосовать в опросах
    Вы не можете прикреплять файлы к сообщениям
    Вы можете скачивать файлы