Присоединяйтесь к нам в Telegram!, здесь всегда актуальный адрес сайта, оперативная поддержка и многое другое!!

>

5.9

iTunes

7.4

iTunes

9.4

1 сезон

1

7.4

2 сезон

7.2

iTunes

7.3

1 сезон

13

6.1

iTunes

8.3

GOG

30

ULTIMATE

pack

9.9

Лицензия

ВАЖНО

ИГРА 18+

pack

7.3

RePack

MK11

7.7

RePack

jed

7.8

RePack

fifa19

8.5

RePack

RDR2

RePack

NEED FOR SPEED™ PAYBACK

5 сезон

9 сезон

Бесстыжие 9 сезон

Все сериалы

все сериалы на PB.wtf

RePack

FAR CRY 5

Anonymous, доброй ночи, мы катастрофически не успеваем собрать деньги на оплату серверов, помогите нам пожалуйста 5,10,15р., для нас важна любая помощь . В качестве благодарности мы отключим Вам всю рекламу на сайте (укажите свой ник в строку Ваше имя)!

×
  
Magnet ссылка

Mireille Mathieu - The Video Hits Collection / Mireille Mathieu - The Video Hits Collection (MOM RecordsHD) [2017 г., Chanson, pop, WEBRip, Оригинальный] pb.wtf

Mireille Mathieu - The Video Hits Collection через торрент pb.wtf

Размер: 1013 MB | Добавлен: 2 года 10 мес. назад | Торрент скачан:13 раз
Смотреть онлайн Mireille Mathieu - The Video Hits Collection | Скачать    Ребята, помогите собрать деньги на оплату серверов!!!

12-01-2019 20:22 Mireille Mathieu - The Video Hits Collection Скачать торрент  

Mireille Mathieu - The Video Hits Collection / Mireille Mathieu - The Video Hits Collection
Исполнитель: Мирей Матье - Mireille Mathieu
Год выпуска: 2017
Страна: Россия
Студия: MOM RecordsHD
Жанр: Chanson, pop
Продолжительность: 01:07:00
Перевод: Французский


01. Ciao, Bambino, Sorry
02. Pardonne-Moi Ce Caprice D' enfant
03. Amour Défendu
04. Apprends-Moi
05. Le Vieux Café De La Rue D' amérique
06. On Ne Vit Pas Sans Se Dire Adieu
07. Ciao Mon Coeur
08. Bravo, Tu As Gagné
09. Une Femme Amoureuse
10. Be-Bop-A-Lula (feat Michael Holm & Peter Maffay)
11. Together We' re Strong (feat Patrick Duffy)
12. Une Vie D' amour (feat Charles Aznavour)
13. Enfants D' amour Et D' avenir
14. Padam, Padam
15. Non, Je Ne Regrette Pas Rien
16. Nos Souvenirs (Memory)
17. La Vie En Rose
18. Bravo, Tu As Gagné
19. Ciao, Bambino, Sorry
Об исполнителе: Эта хрупкая женщина стала символом целой эпохи, визитной карточкой Франции. Не случайно именно с нее вылепили скульптуру Марианны — национальной героини. Морис Шевалье, мэтр французской эстрады, как-то сказал о Мирей Матье, что она "всегда ходит по солнечной стороне улицы. Музыка в исполнении Матье — это продолжение традиций мастерства Джуди Гарланд, Мориса Шевалье, Шарля Азнавура. Проникновенная лирика, доверительность и высокая вокальная культура — основные слагаемые успеха Матье. Самые большие, престижные залы всего мира ей удалось превратить в уютное домашнее варьете, в котором гости видят друг друга и становятся близкими друзьями.

Качество: WEBRip
Формат: AVI
Видео кодек: XviD
Аудио кодек: MP3
Видео: 704x400 (1.76:1), 25 fps, XviD build 65 ~1975 kbps avg, 0.28 bit/pixel
Аудио#1: 44.100 kHz, MPEG Layer 3, 2 ch, ~128.00 kbps avg

Общее
Полное имя : D:\torrent\Новая загрузка(док)\Mireille.Mathieu-The.Video.Hits.Collection.2017..avi
Формат : AVI
Формат/Информация : Audio Video Interleave
Размер файла : 1013 Мбайт
Продолжительность : 1 ч. 6 м.
Общий поток : 2113 Кбит/сек
Программа кодирования : VirtualDubMod 1.5.10.3 | www.virtualdub-fr.org || (build 2550/release)
Библиотека кодирования : VirtualDub build 35491/release

Видео
Идентификатор : 0
Формат : MPEG-4 Visual
Профиль формата : Advanced Simple@L5
Настройки формата : BVOP2 / Custom Matrix
Параметр BVOP формата : 2
Параметр QPel формата : Нет
Параметр GMC формата : Без точки перехода
Параметр матрицы формата : Выборочная
Идентификатор кодека : XVID
Идентификатор кодека/Подсказка : XviD
Продолжительность : 1 ч. 6 м.
Битрейт : 1976 Кбит/сек
Ширина : 704 пикселя
Высота : 400 пикселей
Соотношение сторон : 16:9
Частота кадров : 25,000 кадров/сек
Цветовое пространство : YUV
Субдискретизация насыщенности : 4:2:0
Битовая глубина : 8 бит
Тип развёртки : Прогрессивная
Метод сжатия : С потерями
Бит/(Пиксели*Кадры) : 0.281
Размер потока : 947 Мбайт (93%)
Библиотека кодирования : XviD 65

Аудио
Идентификатор : 1
Формат : MPEG Audio
Версия формата : Version 1
Профиль формата : Layer 3
Настройки формата : Joint stereo / MS Stereo
Идентификатор кодека : 55
Идентификатор кодека/Подсказка : MP3
Продолжительность : 1 ч. 6 м.
Вид битрейта : Постоянный
Битрейт : 128 Кбит/сек
Каналы : 2 канала
Частота : 44,1 КГц
Метод сжатия : С потерями
Задержка видео : 9 мс.
Размер потока : 61,3 Мбайт (6%)
Выравнивание : Разделение по промежуткам
Продолжительность промежутка : 40 мс. (1,00 видеокадр)
Время предзагрузки промежутка : 500 мс.
Библиотека кодирования : LAME3.99.5
pb.wtf



Скачать Mireille Mathieu - The Video Hits Collection через торрент https://pic1.kartinco.top/images/12/kte7p.jpg Скачать, смотреть онлайн Mireille Mathieu - The Video Hits Collection бесплантно в хорошем качестве Трэклист Ciao, Bambino, Sorry Pardonne-Moi Ce Caprice D' enfant Amour Défendu Apprends-Moi Le Vieux Café De La Rue D' ... 9.5 10 4
Info! Серебряная раздача, засчитывается только 50% скачанного.
Торрент: Зарегистрирован [2019-01-12 20:22] · скачан: 13 раз
Статус: √ проверено
Размер: 1013 MB
Как cкачать? Как скачать Mireille Mathieu - The Video Hits Collection через торрент | UTorrent

28-11-2019 20:33  

Отключить всю рекламу на сайте

    Дорогой пользователь! Огромная просьба, поблагодарите релизера, оцените раздачу и оставьте свои комментарий, если Вы скачали Mireille Mathieu - The Video Hits Collection через торрент бесплатно!
    Комментировать посты могут только пользователи прошедшие не сложную регистрацию
    Показать сообщения:    

    Mireille Mathieu - The Video Hits Collection через торрент
    Скачать бесплатно Mireille Mathieu - The Video Hits Collection
    Mireille Mathieu - The Video Hits Collection скачать торрент
    Mireille Mathieu - The Video Hits Collection смотреть онлайн
    Cкачать фильм Mireille Mathieu - The Video Hits Collection бесплатно
    Mireille Mathieu - The Video Hits Collection скачать торрент в хорошем качестве
    Mireille Mathieu - The Video Hits Collection смотреть онлайн бесплатно в хорошем качестве


    Вы не можете начинать темы
    Вы не можете отвечать на сообщения
    Вы не можете редактировать свои сообщения
    Вы не можете удалять свои сообщения
    Вы не можете голосовать в опросах
    Вы не можете прикреплять файлы к сообщениям
    Вы можете скачивать файлы