2 сезон

iTunes

1 сезон

1

iTunes

iTunes

iTunes

1 сезон

RePack

30

ИГРА 18+

pack

ВАЖНО

!!Акция!!

Alien_RageХит недели

RePack

MK11
pack

Забери бонус

RePack

jed

!!Акция!!

Alien_Rage

RePack

fifa19

RePack

Assassins Creed: Odyssey

RePack

NEED FOR SPEED™ PAYBACK

4 сезон

9 сезон

Бесстыжие 9 сезон

Все сериалы

все сериалы на PB.wtf

RePack

FAR CRY 5
  

Новогодний экспресс (Любовь дальнего следования) / Серии: 1-2 из 2 (Дмитрий Булин) [2018 г., Мелодрама, WEB-DLRip] pb.wtf

Новогодний экспресс через торрент pb.wtf

Размер: 2.19 GB | Добавлен: 1 год 9 мес. назад | Торрент скачан:143 раза
Скачать  

12-01-2019 23:11 Новогодний экспресс Скачать торрент  

Новогодний экспресс (Любовь дальнего следования)
Год выпуска: 2018
Страна: Россия
Жанр: Мелодрама
Продолжительность: 2 x ~ 01:30:00
Субтитры: Отсутствуют

Режиссер: Дмитрий Булин



В ролях: Ольга Лерман, Евгений Романцов, Дарья Румянцева, Александр Макогон, Ольга Кузьмина, Микаэл Арамян, Александр Арсентьев, Мария Померанцева, Надежда Азоркина, Екатерина Гудина, Инга Фишлер, Виталия Корниенко

Описание: Кто едет в поезде в новогоднюю ночь? Только неисправимые романтики – или конченые неудачники! Но судьба не просто так собрала 31 декабря в одном составе разных людей с разными историями – на каждого из пассажиров у наступающего года свои планы!

Качество: WEB-DLRip
Формат: AVI
Видео кодек: XviD
Аудио кодек: AC3
Видео: XviD, 2069 Кбит/с, 720x400, 25 кадр/с
Аудио#1: AC3, 2 ch, 192 Кбит/с
скриншот   скриншот   скриншот   скриншот  

General
Complete name : D:\моё видио\01. Новогодний экспресс.WEB-DLRip.avi
Format : AVI
Format/Info : Audio Video Interleave
File size : 1.37 GiB
Duration : 1h 26mn
Overall bit rate : 2 271 Kbps
Movie name : H
Writing application : V
Original source form/Name : M

Video
ID : 0
Format : MPEG-4 Visual
Format profile : Advanced Simple@L5
Format settings, BVOP : 2
Format settings, QPel : No
Format settings, GMC : No warppoints
Format settings, Matrix : Default (H.263)
Codec ID : XVID
Codec ID/Hint : XviD
Duration : 1h 26mn
Bit rate : 2 069 Kbps
Width : 720 pixels
Height : 400 pixels
Display aspect ratio : 16:9
Frame rate : 25.000 fps
Color space : YUV
Chroma subsampling : 4:2:0
Bit depth : 8 bits
Scan type : Progressive
Compression mode : Lossy
Bits/(Pixel*Frame) : 0.287
Stream size : 1.24 GiB (91%)
Writing library : XviD 1.2.1 (UTC 2008-12-04)

Audio
ID : 1
Format : AC-3
Format/Info : Audio Coding 3
Mode extension : CM (complete main)
Format settings, Endianness : Big
Codec ID : 2000
Duration : 1h 26mn
Bit rate mode : Constant
Bit rate : 192 Kbps
Channel(s) : 2 channels
Channel positions : Front: L R
Sampling rate : 48.0 KHz
Bit depth : 16 bits
Compression mode : Lossy
Stream size : 118 MiB (8%)
Alignment : Split accross interleaves
Interleave, duration : 40 ms (1.00 video frame)
Interleave, preload duration : 500 ms

pb.wtf



Скачать Новогодний экспресс через торрент http://pic1.kartinco.top/images/12/c1sgg.jpg Скачать фильм Новогодний экспресс через торрент бесплантно в хорошем качестве Описание: Кто едет в поезде в новогоднюю ночь? Только неисправимые романтики – или конченые неудачники! Но судьба не просто так собрала 31 ... 9.2 10 6
Торрент: Зарегистрирован [2019-01-12 23:11] · скачан: 143 раз
Статус: √ проверено
Размер: 2.19 GB
Как cкачать? Как скачать Новогодний экспресс через торрент | qTorrent

28-11-2019 20:33  

Отключить всю рекламу на сайте

    Дорогой пользователь! Огромная просьба, поблагодарите релизера, оцените раздачу и оставьте свои комментарий, если Вы скачали Новогодний экспресс через торрент бесплатно! Внесите свою лепту в развитие PiratBit!
    Комментировать посты могут только пользователи прошедшие не сложную регистрацию
    Показать сообщения:    

    Новогодний экспресс через торрент
    Скачать бесплатно Новогодний экспресс
    Новогодний экспресс скачать торрент
    Новогодний экспресс смотреть онлайн
    Cкачать фильм Новогодний экспресс бесплатно
    Новогодний экспресс скачать торрент в хорошем качестве
    Новогодний экспресс смотреть онлайн бесплатно в хорошем качестве


    Вы не можете начинать темы
    Вы не можете отвечать на сообщения
    Вы не можете редактировать свои сообщения
    Вы не можете удалять свои сообщения
    Вы не можете голосовать в опросах
    Вы не можете прикреплять файлы к сообщениям
    Вы можете скачивать файлы