Присоединяйтесь к нам в Telegram!, здесь всегда актуальный адрес сайта, оперативная поддержка и многое другое!!

>

5.9

iTunes

7.4

iTunes

9.4

1 сезон

1

7.4

2 сезон

7.2

iTunes

7.3

1 сезон

13

6.1

iTunes

8.3

GOG

30

ULTIMATE

pack

9.9

Лицензия

ВАЖНО

ИГРА 18+

pack

7.3

RePack

MK11

7.7

RePack

jed

7.8

RePack

fifa19

8.5

RePack

RDR2

RePack

NEED FOR SPEED™ PAYBACK

5 сезон

9 сезон

Бесстыжие 9 сезон

Все сериалы

все сериалы на PB.wtf

RePack

FAR CRY 5

Anonymous, доброй ночи, мы катастрофически не успеваем собрать деньги на оплату серверов, помогите нам пожалуйста 5,10,15р., для нас важна любая помощь . В качестве благодарности мы отключим Вам всю рекламу на сайте (укажите свой ник в строку Ваше имя)!

×
  
Magnet ссылка

Boney M - The Video Hits Collection / Boney M - The Video Hits Collection (2016) [2016 г., Eurodisco, reggae, WEBRip, Оригинальный] pb.wtf

Boney M - The Video Hits Collection через торрент pb.wtf

Размер: 1.17 GB | Добавлен: 2 года 10 мес. назад | Торрент скачан:45 раз
Смотреть онлайн Boney M - The Video Hits Collection | Скачать    Ребята, помогите собрать деньги на оплату серверов!!!

12-01-2019 23:49 Boney M - The Video Hits Collection Скачать торрент  

Boney M - The Video Hits Collection / Boney M - The Video Hits Collection (2016)
Исполнитель: Boney M
Год выпуска: 2016
Страна: Россия
Студия : MOM RecordsHD
Жанр: Eurodisco, reggae
Продолжительность: 01:39:28
Перевод: Оригинальный

О группе:
Оценивая музыкальное наследие безудержных 80-х можно смело утверждать, что звезда Boney M была одной из самых ярких в созвездии остальных культовых групп знаменитой эпохи «диско». Как правило, с годами память о некогда популярных хитах тускнеет, однако в случае с диско группы 80-х Бони М это утверждение не действует. Спустя более чем три десятилетия зажигательные композиции Bony M по-прежнему остаются вне конкуренции и все также энергично «заводят» танцполы различных стран и континентов. К числу поклонников Бони Эм не без гордости причисляют себя совсем молодые ребята, но особенное, трепетно-ностальгическое отношение к их творчеству питают те, чья молодость, окрашенная множеством идеологических запретов, прошла в СССР. Благодаря своей яркой уникальности Бонни М удалось завоевать любовь и признание миллионов фанатов по всему земному шару.

: 01. Baby Do You Wanna Bump
02. Sunny
03. Brown Girl in The Ring
04. Belfast
05. Daddy Cool
06. Ma Baker
07. Rasputin
08. No More Chain Gang
09. Never Change Lovers in The Middle of The Night
10. Take The Heat off Me
11. Love For Sale
12. Motherless Child
13. We Kill The World
14. Children of Paradise
15. Dancing in The Streets
16. Gadda Da Vida
17. Boonoonoonoos
18. Voodoonight
19. King of The Road
20. He Was a Steppenwolf
21. Dreadlock Holiday
22. Kalimba De Luna
Качество: WEBRip
Формат: AVI
Видео кодек: XviD
Аудио кодек: MP3
Видео: 704x400 (1.76:1), 23.976 fps, XviD build 65 ~1539 kbps avg, 0.23 bit/pixel
Аудио#1: 44.100 kHz, MPEG Layer 3, 2 ch, ~128.00 kbps avg
Общее
Полное имя : D:\torrent\Новая загрузка(док)\Boney.M-The.Video.Hits.Collection.2016.avi
Формат : AVI
Формат/Информация : Audio Video Interleave
Размер файла : 1,17 Гбайт
Продолжительность : 1 ч. 39 м.
Общий поток : 1677 Кбит/сек
Программа кодирования : VirtualDubMod 1.5.10.3 | www.virtualdub-fr.org || (build 2550/release)
Библиотека кодирования : VirtualDubMod build 2550/release

Видео
Идентификатор : 0
Формат : MPEG-4 Visual
Профиль формата : Advanced Simple@L5
Настройки формата : BVOP2 / Custom Matrix
Параметр BVOP формата : 2
Параметр QPel формата : Нет
Параметр GMC формата : Без точки перехода
Параметр матрицы формата : Выборочная
Идентификатор кодека : XVID
Идентификатор кодека/Подсказка : XviD
Продолжительность : 1 ч. 39 м.
Битрейт : 1540 Кбит/сек
Ширина : 704 пикселя
Высота : 400 пикселей
Соотношение сторон : 16:9
Частота кадров : 23,976 (24000/1001) кадра/сек
Частота кадров в оригинале : 23,976 (23976/1000) кадра/сек
Цветовое пространство : YUV
Субдискретизация насыщенности : 4:2:0
Битовая глубина : 8 бит
Тип развёртки : Прогрессивная
Метод сжатия : С потерями
Бит/(Пиксели*Кадры) : 0.228
Размер потока : 1,07 Гбайт (92%)
Библиотека кодирования : XviD 65

Аудио
Идентификатор : 1
Формат : MPEG Audio
Версия формата : Version 1
Профиль формата : Layer 3
Настройки формата : Joint stereo / MS Stereo
Идентификатор кодека : 55
Идентификатор кодека/Подсказка : MP3
Продолжительность : 1 ч. 39 м.
Вид битрейта : Постоянный
Битрейт : 128 Кбит/сек
Каналы : 2 канала
Частота : 44,1 КГц
Частота кадров : 38,281 кадров/сек (1152 SPF)
Метод сжатия : С потерями
Размер потока : 91,1 Мбайт (8%)
Выравнивание : Разделение по промежуткам
Продолжительность промежутка : 42 мс. (1,00 видеокадр)
Время предзагрузки промежутка : 500 мс.
Библиотека кодирования : LAME3.99r
Настройки программы : -m j -V 4 -q 2 -lowpass 17 -b 128

pb.wtf



Скачать Boney M - The Video Hits Collection через торрент https://pic1.kartinco.top/images/12/addd4.jpg Скачать, смотреть онлайн Boney M - The Video Hits Collection бесплантно в хорошем качестве Трэклист: Baby Do You Wanna Bump Sunny Brown Girl in The Ring Belfast Daddy Cool Ma Baker Rasputin08. No More Chain ... 9.8 10 8
Info! Серебряная раздача, засчитывается только 50% скачанного.
Торрент: Зарегистрирован [2019-01-12 23:49] · скачан: 45 раз
Статус: √ проверено
Размер: 1.17 GB
Как cкачать? Как скачать Boney M - The Video Hits Collection через торрент | UTorrent

28-11-2019 20:33  

Отключить всю рекламу на сайте

    Дорогой пользователь! Огромная просьба, поблагодарите релизера, оцените раздачу и оставьте свои комментарий, если Вы скачали Boney M - The Video Hits Collection через торрент бесплатно!
    Комментировать посты могут только пользователи прошедшие не сложную регистрацию
    Показать сообщения:    

    Boney M - The Video Hits Collection через торрент
    Скачать бесплатно Boney M - The Video Hits Collection
    Boney M - The Video Hits Collection скачать торрент
    Boney M - The Video Hits Collection смотреть онлайн
    Cкачать фильм Boney M - The Video Hits Collection бесплатно
    Boney M - The Video Hits Collection скачать торрент в хорошем качестве
    Boney M - The Video Hits Collection смотреть онлайн бесплатно в хорошем качестве


    Вы не можете начинать темы
    Вы не можете отвечать на сообщения
    Вы не можете редактировать свои сообщения
    Вы не можете удалять свои сообщения
    Вы не можете голосовать в опросах
    Вы не можете прикреплять файлы к сообщениям
    Вы можете скачивать файлы