Ссылка на приватное зеркало нашего сайта всего за 1$. Внимание количество ограничено!!!

2 сезон

iTunes

1 сезон

1

iTunes

iTunes

iTunes

1 сезон

RePack

30

ИГРА 18+

pack

ВАЖНО

!!Акция!!

Alien_RageХит недели

RePack

MK11
pack

Забери бонус

RePack

jed

!!Акция!!

Alien_Rage

RePack

fifa19

RePack

Assassins Creed: Odyssey

RePack

NEED FOR SPEED™ PAYBACK

4 сезон

9 сезон

Бесстыжие 9 сезон

Все сериалы

все сериалы на PB.wtf

RePack

FAR CRY 5
  

Молодежка. Лёд и пламя / Сезон: 6 / Серии: 1-44 из 44 (Сергей Арланов, Андрей Головков) [2018, Драма, спорт, WEB-DL 1080p] pb.wtf

Молодежка. Лёд и пламя через торрент pb.wtf

Размер: 78.26 GB | Добавлен: 1 год 4 мес. назад | Торрент скачан:7 раз
Скачать  

13-01-2019 08:45 Молодежка. Лёд и пламя Скачать торрент  

Молодежка. Лёд и пламя
Год выпуска: 2018
Страна: Россия
Жанр: Драма, спорт
Продолжительность: ~ 00:47:00
Субтитры: отсутствуют

Режиссер: Сергей Арланов, Андрей Головков



В ролях:

Денис Никифоров (Сергей Петрович Макеев, тренер «Медведей»), Михаил Жигалов (Степан Аркадьевич Жарский, старый тренер «Медведей»), Фёдор Бондарчук (Олег Иванович Калинин, олигарх), Сергей Габриэлян (Василий Геннадьевич Фролов (ВасГен), врач «Медведей»), Владимир Зайцев (Вадим Юрьевич Казанцев, спортивный директор клуба), Сергей Комаров (Юрий Михайлович Романенко, второй тренер «Медведей»), Анатолий Лобоцкий (Станислав, отец Александра Кострова), Ксения Лаврова-Глинка (Ольга, мать Александра Кострова), Серафима Низовская (Юлия, мать Антона Антипова), Валентина Ананьина (бабушка Михаила Пономарёва), Макар Запорожский (Дмитрий Щукин, вратарь (игр. номер 1), брат Егора), Александр Соколовский (Егор Щукин, центральный нападающий (игр. номер 10), брат Дмитрия)
Описание:

Главных героев ждут новые сражения на льду, но уже в рядах Высшей Хоккейной Лиги. После триумфального завершения сезона под руководством Макеева главных героев ждет карьера в ВХЛ. Ребята вступают на взрослый путь в составе клуба «Бурые Медведи», где их ждут не только заманчивые перспективы, но и непростой прием старожилов. Хватит ли опыта бывшим звездам молодежной команды, чтобы сыграться с ними и найти общий язык



Качество: WEB-DL 1080p
Формат: MKV

Видео: 1920х1080 (16:9), 25 fps, AVC MPEG-4 (x264), High@L4.0 ~ 5000 kbps avg, 0.097 bit/pixel
Аудио: 48 kHz, AC3, 2 ch, 192 kbps avg
скриншот  скриншот  скриншот  скриншот  

Общее
Уникальный идентификатор : 254030213972365547202587353980699986093 (0xBF1C7088C37E05E385E0B1E4D2D0C8AD)
Полное имя : E:\Moldegka.06.2018.WEB-DL.(1080p).Nikolspup\Moldegka.06.(01.seriya).2018.WEB-DL.(1080p).Nikolspup.mkv
Формат : Matroska
Версия формата : Version 4 / Version 2
Размер файла : 1,78 Гбайт
Продолжительность : 48 м. 15 с.
Общий поток : 5293 Кбит/сек
Дата кодирования : UTC 2019-01-12 19:37:17
Программа кодирования : mkvmerge v7.8.0 ('River Man') 32bit built on Mar 27 2015 16:18:02
Библиотека кодирования : libebml v1.3.1 + libmatroska v1.4.2

Видео
Идентификатор : 1
Формат : AVC
Формат/Информация : Advanced Video Codec
Профиль формата : High@L4
Настройки формата : CABAC / 4 Ref Frames
Параметр CABAC формата : Да
Параметр RefFrames формата : 4 кадра
Идентификатор кодека : V_MPEG4/ISO/AVC
Продолжительность : 48 м. 15 с.
Битрейт : 4996 Кбит/сек
Ширина : 1920 пикселей
Высота : 1080 пикселей
Соотношение сторон : 16:9
Режим частоты кадров : Постоянный
Частота кадров : 25,000 кадров/сек
Цветовое пространство : YUV
Субдискретизация насыщенности : 4:2:0
Битовая глубина : 8 бит
Тип развёртки : Прогрессивная
Бит/(Пиксели*Кадры) : 0.096
Размер потока : 1,68 Гбайт (94%)
Default : Да
Forced : Нет

Аудио
Идентификатор : 2
Формат : AC-3
Формат/Информация : Audio Coding 3
Идентификатор кодека : A_AC3
Продолжительность : 48 м. 15 с.
Вид битрейта : Постоянный
Битрейт : 192 Кбит/сек
Каналы : 2 канала
Расположение каналов : Front: L R
Частота : 48,0 КГц
Частота кадров : 31,250 кадров/сек (1536 SPF)
Битовая глубина : 16 бит
Метод сжатия : С потерями
Размер потока : 66,3 Мбайт (4%)
Язык : Russian
ServiceKind/String : Complete Main
Default : Да
Forced : Нет

Когда раздача ведётся путём добавления новых серий, при каждом добавлении создётся новый торрент. Чтобы начать докачку новой серии, пользователям необходимо сделать следующее:
(1) остановить скачивание,
(2) удалить старый торрент у себя из клиента (старые серии удалять не надо),
(3) скачать новый торрент и запустить его у себя в клиенте вместо старого, при этом указать клиенту путь в старую папку, куда и должно происходить скачивание новых серий.
Ваш клиент при этом должен произвести хеширование (проверку) старой папки (если не производит сам - помогите ему сделать это), и будет докачивать только те серии, которых у вас ещё нет. Старые серии при этом не удаляются, а продолжают раздаваться!
Eсли вы уже удалили старые серии, то предотвратить повторную закачку старых серий можно, отжав галочку в соответсвующих местах при запуске нового торрента. По возможности, желательно не удалять старые серии как можно дольше, чтобы релизёр не столько продолжал раздавать старые серии, а смог сконцентрироваться на новых.
pb.wtf



Скачать Молодежка. Лёд и пламя через торрент http://i100.fastpic.ru/big/2018/0910/a0/99b7c478bf3d1d015497c6f4a4de7aa0.jpg Скачать фильм Молодежка. Лёд и пламя через торрент бесплантно в хорошем качестве Описание: Главных героев ждут новые сражения на льду, но уже в рядах Высшей Хоккейной Лиги. После триумфального завершения сезона под ... 10 10 3
Торрент: Зарегистрирован [2019-05-30 23:17] · скачан: 7 раз
Статус: √ проверено
Размер: 78.26 GB
Как cкачать? Как скачать Молодежка. Лёд и пламя через торрент | qTorrent

% Раздел Тема Автор DL S | L
Наши сериалы [ 25.12 GB ] Молодежка. Лёд и пламя / Сезон: 6 / Серии: 1-44 из 44 [2018 WEB-DLRip] bober100 Скачать
3 | 0
Наши сериалы [ 54.45 GB ] Молодежка. Лёд и пламя / Сезон: 6 / Серии: 1-44 из 44 [2018 WEB-DL 720p] bober100 Скачать
1 | 0
Наши сериалы [ 26.35 GB ] Молодежка. Лёд и пламя / Сезон: 6 / Серии: 1-44 из 44 [2018 Спорт WEB-DLRip-AVC] Sanekzade1989 Скачать
1 | 0

28-11-2019 20:33  

Отключить всю рекламу на сайте

    Дорогой пользователь! Огромная просьба, поблагодарите релизера, оцените раздачу и оставьте свои комментарий, если Вы скачали Молодежка. Лёд и пламя через торрент бесплатно! Внесите свою лепту в развитие PiratBit!
    Комментировать посты могут только пользователи прошедшие не сложную регистрацию
    Показать сообщения:    

    Молодежка. Лёд и пламя через торрент
    Скачать бесплатно Молодежка. Лёд и пламя
    Молодежка. Лёд и пламя скачать торрент
    Молодежка. Лёд и пламя смотреть онлайн
    Cкачать фильм Молодежка. Лёд и пламя бесплатно
    Молодежка. Лёд и пламя скачать торрент в хорошем качестве
    Молодежка. Лёд и пламя смотреть онлайн бесплатно в хорошем качестве


    Вы не можете начинать темы
    Вы не можете отвечать на сообщения
    Вы не можете редактировать свои сообщения
    Вы не можете удалять свои сообщения
    Вы не можете голосовать в опросах
    Вы не можете прикреплять файлы к сообщениям
    Вы можете скачивать файлы