Ссылка на приватное зеркало нашего сайта всего за 1$. Внимание количество ограничено!!!

2 сезон

iTunes

1 сезон

1

iTunes

iTunes

iTunes

1 сезон

RePack

30

ИГРА 18+

pack

ВАЖНО

!!Акция!!

Alien_RageХит недели

RePack

MK11
pack

Забери бонус

RePack

jed

!!Акция!!

Alien_Rage

RePack

fifa19

RePack

Assassins Creed: Odyssey

RePack

NEED FOR SPEED™ PAYBACK

4 сезон

9 сезон

Бесстыжие 9 сезон

Все сериалы

все сериалы на PB.wtf

RePack

FAR CRY 5
  

Пират и пиратка / Сезон: 1 / Серии: 1-8 из 8 (Юсуп Разыков) [2010, Детектив, мелодрама, SATRip] pb.wtf

Пират и пиратка через торрент pb.wtf

Размер: 5.12 GB | Добавлен: 1 год 9 мес. назад | Торрент скачан:67 раз
Скачать  

13-01-2019 09:08 Пират и пиратка Скачать торрент  

Пират и пираткаГод выпуска: 2010
Страна: Россия
Жанр: Детектив, мелодрама
Продолжительность: ~ 00:40:00
Субтитры: отсутствуют

Режиссер: Юсуп Разыков



В ролях:

Наталия Вдовина, Сергей Шакуров, Елена Валюшкина, Юрий Воробьёв, Дмитрий Ратомский, Алина Сергеева, Лев Прыгунов

Описание:

Бывший советский разведчик собирается написать книгу о службе в КГБ, ему нужна помощь редактора, и он останавливает свой выбор на молодой журналистке, которая внешне похожа на его жену, погибшую 20 лет назад. Журналистка не совсем понимает, зачем, ради чего делалось все то, о чём рассказывает ей кэгэбэшник, ради чего шли на такие риски. Она с иронией воспринимает его размышления и его идеалы. Но со временем ирония перерастает в понимание, уважение и настоящее чувство.

Качество: SATRip
Формат: AVI

Видео: 688x384 (16/9), 25 fps, XviD MPEG-4 Visual, ~2015 kbps avg, 0.305 bit/pixel
Аудио: MP3, 2 ch, 128 Кбит/с
скриншот  скриншот  скриншот  

Общее
Полное имя : E:\торреннты\Pirat i piratka_2010_SATRip_SVAT\Pirat i piratka_01 seriya_2010_SATRip_SVAT.avi
Формат : AVI
Формат/Информация : Audio Video Interleave
Размер файла : 645 Мбайт
Продолжительность : 41 м. 52 с.
Общий поток : 2152 Кбит/сек
Программа кодирования : VirtualDubMod 1.5.10.3 | www.virtualdub-fr.org || (build 2550/release)
Библиотека кодирования : VirtualDubMod build 2550/release

Видео
Идентификатор : 0
Формат : MPEG-4 Visual
Профиль формата : Advanced Simple@L5
Настройки формата : BVOP1
Параметр BVOP формата : 1
Параметр QPel формата : Нет
Параметр GMC формата : Без точки перехода
Параметр матрицы формата : Default (MPEG)
Идентификатор кодека : XVID
Идентификатор кодека/Подсказка : XviD
Продолжительность : 41 м. 52 с.
Битрейт : 2015 Кбит/сек
Ширина : 688 пикселей
Высота : 384 пикселя
Соотношение сторон : 16:9
Частота кадров : 25,000 кадров/сек
Цветовое пространство : YUV
Субдискретизация насыщенности : 4:2:0
Битовая глубина : 8 бит
Тип развёртки : Прогрессивная
Метод сжатия : С потерями
Бит/(Пиксели*Кадры) : 0.305
Размер потока : 603 Мбайт (94%)
Библиотека кодирования : XviD 63

Аудио
Идентификатор : 1
Формат : MPEG Audio
Версия формата : Version 1
Профиль формата : Layer 3
Идентификатор кодека : 55
Идентификатор кодека/Подсказка : MP3
Продолжительность : 41 м. 52 с.
Вид битрейта : Постоянный
Битрейт : 128 Кбит/сек
Каналы : 2 канала
Частота : 48,0 КГц
Частота кадров : 41,667 кадра/сек (1152 SPF)
Метод сжатия : С потерями
Размер потока : 38,3 Мбайт (6%)
Выравнивание : Соединение по промежуткам
Продолжительность промежутка : 40 мс. (1,00 видеокадр)
Время предзагрузки промежутка : 504 мс.
Библиотека кодирования : LAME3.98r
Настройки программы : -m s -V 4 -q 2 -lowpass 17 -b 128

pb.wtf



Скачать Пират и пиратка через торрент https://d.radikal.ru/d09/1901/a5/6f8ed7a0c6f9.jpg Скачать фильм Пират и пиратка через торрент бесплантно в хорошем качестве Описание: Бывший советский разведчик собирается написать книгу о службе в КГБ, ему нужна помощь редактора, и он останавливает свой выбор на ... 10 10 7
Торрент: Зарегистрирован [2019-01-13 09:08] · скачан: 67 раз
Статус: √ проверено
Размер: 5.12 GB
Как cкачать? Как скачать Пират и пиратка через торрент | qTorrent

28-11-2019 20:33  

Отключить всю рекламу на сайте

    Дорогой пользователь! Огромная просьба, поблагодарите релизера, оцените раздачу и оставьте свои комментарий, если Вы скачали Пират и пиратка через торрент бесплатно! Внесите свою лепту в развитие PiratBit!
    Комментировать посты могут только пользователи прошедшие не сложную регистрацию
    Показать сообщения:    

    Пират и пиратка через торрент
    Скачать бесплатно Пират и пиратка
    Пират и пиратка скачать торрент
    Пират и пиратка смотреть онлайн
    Cкачать фильм Пират и пиратка бесплатно
    Пират и пиратка скачать торрент в хорошем качестве
    Пират и пиратка смотреть онлайн бесплатно в хорошем качестве


    Вы не можете начинать темы
    Вы не можете отвечать на сообщения
    Вы не можете редактировать свои сообщения
    Вы не можете удалять свои сообщения
    Вы не можете голосовать в опросах
    Вы не можете прикреплять файлы к сообщениям
    Вы можете скачивать файлы